Мой маленький пони: Девочки из Эквестрии - Выбери свою концовку / My Little Pony: Equestria Girls - Choose Your Own Ending / Интерактивные серии: 1-40 из 40 (Ishi Rudell, Katrina Hadley) [2017, мультфильм, фэнтези, WEBRip 1080p] Dub + Original + Sub

Reply to topic
DL-List and Torrent activity
Size:  911 MB   |    Registered:  3 months 17 days   |    Completed:  0 times

Seeder not seen: Never

 
   
 
 
Author Message

star21 ®

Gender: Female

Longevity: 3 years 9 months

Posts: 551989

Location: Екатеринбург

Post 06-May-2019 17:55

[Quote]

Мой маленький пони: Девочки из Эквестрии - Выбери свою концовку
My Little Pony: Equestria Girls - Choose Your Own Ending
Страна: Канада, Великобритания
Жанр: Приключения, мультфильм, комедия, семейный, фэнтези
Продолжительность: ~00:01:30
Год выпуска: 2017
Перевод: Профессиональный (дублированный) (SDI Media Russia)
Русские субтитры: естьРежиссёр: Иши Руделл, Катрина Хадли / Ishi Rudell, Katrina Hadley
Роли озвучивали: Кэтлин Барр, Табита Сен-Жермен, Кэти Уэслак, Ребекка Шойкет, Ли Токар, Винсент Тонг и другиеОписание: Очередной сезон мини-короткометражек про девочек из Эквестрии продолжает цифровые серии видео-роликов о приключениях ваших любимых персонажей - ученой Сумеречной Искорки, отважной Радуги, трудолюбивой Эпплджек, стеснительной Флаттершай, веселой Пинки Пай, элегантной Рарити и яркой Сансет Шиммер. На этот раз подруги готовятся к театральному представлению в средней школе Кантерлота и иногда попадают в затруднительные ситуации, в каждой из которых вы можете сами выбрать на экране одну из трех кнопок, чтобы узнать - кто же из друзей поможет персонажу преодолеть возникшую проблему - попробуйте исследовать все возможные варианты развития событий. Предыдущие и альтернативные раздачи
Рейтинг: [imdb]http://www.imdb.com/title/tt8424430[/imdb] Качество: WEBRip 1080p
Формат: MKV
Видео: AVC, 1920x1080 (16:9), 23.976 fps, 1-3 mbps
Аудио 1 Rus: AC3, 48 kHz, 2 ch, 192 kbps (SDI Media Russia)
Аудио 2 Eng: AC3, 48 kHz, 2 ch, 192 kbps (Original)
Субтитры: русские и английские (Anon2Anon)

Скриншоты

Список серий

01. Новые тренды / Best Trends Forever02. Выберем Twilight Sparkle / Choose Twilight Sparkle03. Выберем Rainbow Dash / Choose Rainbow Dash04. Выберем Pinkie Pie / Choose Pinkie Pie05. Флаттершай стесняется / Fluttershy's Butterflies06. Выберем Rainbow Dash / Choose Rainbow Dash07. Выберем Applejack / Choose Applejack08. Выберем DJ Pon-3 / Choose DJ Pon-309. ЭсЭмЭс-помощь / Text Support10. Выберем Rarity / Choose Rarity11. Выберем Fluttershy / Choose Fluttershy12. Выберем Sunset Shimmer / Choose Sunset Shimmer13. Средство от стресса / Stressed in Show14. Выберем Fluttershy / Choose Fluttershy15. Выберем Rainbow Dash / Choose Rainbow Dash16. Выберем Pinkie Pie / Choose Pinkie Pie17. Шиммер за рулём / Driving Miss Shimmer18. Выберем Rarity / Choose Rarity19. Выберем Applejack / Choose Applejack20. Выберем Fluttershy / Choose Fluttershy21. Следствие ведёт Рарити: Дело о заколдованном сапоге / Rarity Investigates: The Case of the Bedazzled Boot22. Выберем Pinkie Pie / Choose Pinkie Pie23. Выберем Trixie / Choose Trixie24. Выберем Applejack / Choose Applejack25. Закулисный мир / All the World's Off Stage26. Выберем Twilight Sparkle / Choose Twilight Sparkle27. Выберем Pinkie Pie / Choose Pinkie Pie28. Выберем Micro Chips / Choose Micro Chips29. Конструктивная критика / Constructive Criticism30. Выберем Rainbow Dash / Choose Rainbow Dash31. Выберем Pinkie Pie / Choose Pinkie Pie32. Выберем Photo Finish / Choose Photo Finish33. Премьера / Opening Night34. Выберем Applejack / Choose Applejack35. Выберем Twilight Sparkle / Choose Twilight Sparkle36. Выберем Sunset Shimmer / Choose Sunset Shimmer37. И праздновали они долго и счастливо / Happily Ever After Party38. Выберем Applejack / Choose Applejack39. Выберем Rarity / Choose Rarity40. Выберем Rainbow Dash / Choose Rainbow Dash

Дополнительная информация

В раздаче присутствует профессиональный дубляж студии SDI Media Russia, а также цветные русские и английские субтитры Anon2Anon ко всем сериям. Сериал рекомендован для семейного просмотра. Названия серий на русском языке взяты из официально локализованных роликов, вышедших в дубляже на YouTube. Нумерация серий в этой раздаче соответствует нумерации в Wiki, на Кинопоиске и IMDb.
Для успешного просмотра интерактивных серий через ppsx-презентации понадобится программа PowerPoint из пакета MS Office 2013, 2016 или 2019 (возможно, также подойдет пока не проверенный MS Office 365) - некоторые из этих платных пакетов имеют ограниченный срок условно-бесплатного использования. К сожалению, не удалось получить нормальную интерактивность при попытках просмотреть презентации (даже с внедренными видео) через бесплатные программы, в том числе PowerPoint Viewer 2010, PPTX Viewer, PowerPoint Online, PowerPoint из Live Office и PowerPoint для Android. Управление при просмотре презентаций: Пробел - пауза/продолжить, Esc - пауза/выход, нажатие мышки/тачпада на интерактивной кнопке - сделать выбор.

Подробные технические данные

ОбщееУникальный идентификатор                 : 285545498109796758512644454528128444853 (0xD6D21001EE4D16BB0E9D02C470BCE9B5)Полное имя                               : C:\Video\MLP EG Choose Your Own Ending\mlp.eg.cyoe.e01.Best Trends Forever.mkvФормат                                   : MatroskaВерсия формата                           : Version 4 / Version 2Размер файла                             : 22,4 МбайтПродолжительность                        : 1 м. 8 с.Общий поток                              : 2755 Кбит/секДата кодирования                         : UTC 2019-04-26 05:28:07Программа кодирования                    : mkvmerge v28.2.0 ('The Awakening') 64-bitБиблиотека кодирования                   : libebml v1.3.6 + libmatroska v1.4.9ВидеоИдентификатор                            : 1Формат                                   : AVCФормат/Информация                        : Advanced Video CodecПрофиль формата                          : High@L4.1Настройки формата                        : CABAC / 4 Ref FramesПараметр CABAC формата                   : ДаПараметр RefFrames формата               : 4 кадраИдентификатор кодека                     : V_MPEG4/ISO/AVCПродолжительность                        : 1 м. 8 с.Битрейт                                  : 2368 Кбит/секШирина                                   : 1920 пикселейВысота                                   : 1080 пикселейСоотношение сторон                       : 16:9Режим частоты кадров                     : ПостоянныйЧастота кадров                           : 23,976 (24000/1001) кадра/секЦветовое пространство                    : YUVСубдискретизация насыщенности            : 4:2:0Битовая глубина                          : 8 битТип развёртки                            : ПрогрессивнаяБит/(Пиксели*Кадры)                      : 0.048Размер потока                            : 19,2 Мбайт (86%)Библиотека кодирования                   : x264 core 157 r2935 545de2fНастройки программы                      : cabac=1 / ref=4 / deblock=1:0:0 / analyse=0x3:0x133 / me=tesa / subme=11 / psy=1 / psy_rd=1.00:0.00 / mixed_ref=1 / me_range=24 / chroma_me=1 / trellis=2 / 8x8dct=1 / cqm=0 / deadzone=21,11 / fast_pskip=0 / chroma_qp_offset=-2 / threads=12 / lookahead_threads=3 / sliced_threads=0 / nr=0 / decimate=1 / interlaced=0 / bluray_compat=0 / constrained_intra=0 / bframes=16 / b_pyramid=2 / b_adapt=2 / b_bias=0 / direct=3 / weightb=1 / open_gop=0 / weightp=2 / keyint=240 / keyint_min=24 / scenecut=40 / intra_refresh=0 / rc_lookahead=60 / rc=crf / mbtree=1 / crf=20.0 / qcomp=0.60 / qpmin=0 / qpmax=69 / qpstep=4 / vbv_maxrate=62500 / vbv_bufsize=78125 / crf_max=0.0 / nal_hrd=none / filler=0 / ip_ratio=1.40 / aq=1:1.00Язык                                     : EnglishDefault                                  : ДаForced                                   : НетЦветовой диапазон                        : LimitedОсновные цвета                           : BT.709Характеристики трансфера                 : BT.709Коэффициенты матрицы                     : BT.709Аудио #1Идентификатор                            : 2Формат                                   : AC-3Формат/Информация                        : Audio Coding 3Параметр Endianness формата              : BigИдентификатор кодека                     : A_AC3Продолжительность                        : 1 м. 8 с.Вид битрейта                             : ПостоянныйБитрейт                                  : 192 Кбит/секКаналы                                   : 2 каналаРасположение каналов                     : Front: L RЧастота                                  : 48,0 КГцЧастота кадров                           : 31,250 кадров/сек (1536 SPF)Битовая глубина                          : 16 битМетод сжатия                             : С потерямиРазмер потока                            : 1,56 Мбайт (7%)Заголовок                                : КарусельЯзык                                     : RussianServiceKind/String                       : Complete MainDefault                                  : ДаForced                                   : НетАудио #2Идентификатор                            : 3Формат                                   : AC-3Формат/Информация                        : Audio Coding 3Параметр Endianness формата              : BigИдентификатор кодека                     : A_AC3Продолжительность                        : 1 м. 8 с.Вид битрейта                             : ПостоянныйБитрейт                                  : 192 Кбит/секКаналы                                   : 2 каналаРасположение каналов                     : Front: L RЧастота                                  : 48,0 КГцЧастота кадров                           : 31,250 кадров/сек (1536 SPF)Битовая глубина                          : 16 битМетод сжатия                             : С потерямиРазмер потока                            : 1,56 Мбайт (7%)Заголовок                                : OriginalЯзык                                     : EnglishServiceKind/String                       : Complete MainDefault                                  : НетForced                                   : НетТекст #1Идентификатор                            : 4Формат                                   : ASSИдентификатор кодека                     : S_TEXT/ASSИдентификатор кодека/Информация          : Advanced Sub Station AlphaПродолжительность                        : 41 с. 60 мс.Битрейт                                  : 224 бит/секElementCount                             : 17Метод сжатия                             : Без потерьРазмер потока                            : 1,13 Кбайт (0%)Заголовок                                : Anon2AnonЯзык                                     : RussianDefault                                  : НетForced                                   : НетТекст #2Идентификатор                            : 5Формат                                   : ASSИдентификатор кодека                     : S_TEXT/ASSИдентификатор кодека/Информация          : Advanced Sub Station AlphaПродолжительность                        : 41 с. 60 мс.Битрейт                                  : 159 бит/секElementCount                             : 17Метод сжатия                             : Без потерьРазмер потока                            : 818 байт (0%)Заголовок                                : Anon2AnonЯзык                                     : EnglishDefault                                  : НетForced                                   : Нет

To download the content you need:
1. Download and install torrent client [for Windows] or for mobile system
2. Click on [Download]
Attention.
If the test YOU are NOT a ROBOT - does not work, then You are using an outdated browser.
Install the current browser and click on [Download]
Security: torrent client is allowed by Kaspersky.

[asmlocator.ru].t634112.torrent 
Torrent: Registered [ 2019-05-06 17:55 ] · 6BDCC42336F8C248CF6DC43F4D6E0AFC538B0C28

Download .torrent

Download

22 KB

Status: checked
Completed: 0 times
Size: 911 MB
terms.php
[Profile] [PM]
Display posts:    
Reply to topic

Current time is: 23-Aug 19:10

All times are UTC ± 0



You cannot post new topics in this forum
You cannot reply to topics in this forum
You cannot edit your posts in this forum
You cannot delete your posts in this forum
You cannot vote in polls in this forum
You cannot attach files in this forum
You can download files in this forum