Горячая кровь / Безжалостная попутчица / Hot Blooded / Red-Blooded American Girl II (Дэвид Блит / David Blyth) [1997, США, Боевик, триллер, DVD5 (Custom)] AVO (Юрий Сербин) + Original Eng

Reply to topic
DL-List and Torrent activity
Size:  4.35 GB   |    Registered:  3 months 17 days   |    Completed:  1 time

Seeder not seen: 50 minutes

 
   
 
 
Author Message

star21 ®

Gender: Female

Longevity: 3 years 9 months

Posts: 551989

Location: Екатеринбург

Post 05-May-2019 21:05

[Quote]

Горячая кровь / Безжалостная попутчица / Hot Blooded / Red Blooded 2 / Red-Blooded American Girl II Страна: США
Жанр: Боевик, триллер
Год выпуска: 1997
Продолжительность: 1:26:04Перевод: Авторский (одноголосый закадровый) Юрий Сербин
Субтитры: нет
Оригинальная аудиодорожка: английскийРежиссер: Дэвид Блит / David BlythВ ролях: Кари Вурер, Дэвид Кит, Арт МакДональд, Илэйн Мартин, Николас Паско, Джоэнн Такахаши, Филип Риччио, Роланд Ротчилд, Клинтон Уолкер, Кристоффер Райан УинтерсОписание: "Фильм отличается исключительно динамичной и интересной завязкой сюжета. Молодая, красивая проститутка делает стандартное предложение "поразвлечься" далеко уже немолодому, но еще крепкому "водителю-дальнобойщику". Тот, рассмотрев ее получше, узнает девицу и называет по имени, а та вдруг начинает сопротивляться. Мужик все равно тащит ее в фургон, приговаривая, что все будет, как и раньше...Не буду рассказывать, что будет дальше в этом на удивление удачном для малобюджетного кино триллере, а то смотреть будет менее интересно." (Иванов М.)Меню: Есть, Английский, статичноеСэмпл: https://yadi.sk/i/-KXTh5luk5Bn4QТип релиза: DVD5 (Custom)
Контейнер: DVD-VideoВидео: NTSC, 720x480 (4:3), mpeg2, 6 946 kb/s, VBR, 29.970, 0.657 Bits/Pixel
Аудио 1: Russian, AC3, 2 channels, 48 kHz, 192 kb/s
Аудио 2: English, AC3, 2 channels, 48 kHz, 192 kb/s

DVDInfo

Title: HOT_BLOODED_DVD5Size: 4.35 Gb ( 4 561 895,00 KBytes ) - DVD-5Enabled regions: 1, 2, 3, 4, 5, 6, 7, 8VTS_01 :  Play Length: 01:25:59  Video: NTSC 4:3 (720x480) VBR  Audio:      Russian (Dolby AC3, 2 ch)      English (Dolby AC3, 2 ch)VTS_02 :  Play Length: 00:00:00  Video: NTSC 4:3 (720x480) VBR  Audio:      English (Dolby AC3, 2 ch)* Menus Information *VIDEO_TS MenuVideo:      NTSC 4:3 (720x480) VBREnglish Language Unit :      Title MenuVTS_01 MenuVideo:      NTSC 4:3 (720x480) VBREnglish Language Unit :      Root MenuVTS_02 MenuVideo:      NTSC 4:3 (720x480) VBREnglish Language Unit :      Root Menu

MediaInfo

GeneralComplete name            : HOT_BLOODED_DVD5\VIDEO_TS\VTS_01_1.VOBFormat                         : MPEG-PSFile size                        : 1 024 MiBDuration                       : 19 min 8 sOverall bit rate mode     : VariableOverall bit rate              : 7 479 kb/sVideoID                             : 224 (0xE0)Format                         : MPEG VideoFormat version                 : Version 2Format profile                 : Main@MainFormat settings                : CustomMatrix / BVOPFormat settings, BVOP          : YesFormat settings, Matrix        : CustomFormat settings, GOP           : M=3, N=12Duration                       : 19 min 8 sBit rate mode                  : VariableBit rate                       : 6 946 kb/sMaximum bit rate               : 5 728 kb/sWidth                          : 720 pixelsHeight                         : 480 pixelsDisplay aspect ratio           : 4:3Frame rate                     : 29.970 (30000/1001) FPSStandard                       : NTSCColor space                    : YUVChroma subsampling             : 4:2:0Bit depth                      : 8 bitsCompression mode               : LossyBits/(Pixel*Frame)             : 0.671Time code of first frame       : 00:59:58:00Time code source               : Group of pictures headerGOP, Open/Closed               : OpenGOP, Open/Closed of first fram : ClosedStream size                    : 951 MiB (93%)Audio #1ID                             : 189 (0xBD)-128 (0x80)Format                         : AC-3Format/Info                    : Audio Coding 3Commercial name                : Dolby DigitalMuxing mode                    : DVD-VideoDuration                       : 19 min 8 sBit rate mode                  : ConstantBit rate                       : 192 kb/sChannel(s)                     : 2 channelsChannel layout                 : L RSampling rate                  : 48.0 kHzFrame rate                     : 31.250 FPS (1536 SPF)Bit depth                      : 16 bitsCompression mode               : LossyStream size                    : 26.3 MiB (3%)Service kind                   : Complete MainAudio #2ID                             : 189 (0xBD)-129 (0x81)Format                         : AC-3Format/Info                    : Audio Coding 3Commercial name                : Dolby DigitalMuxing mode                    : DVD-VideoDuration                       : 19 min 8 sBit rate mode                  : ConstantBit rate                       : 192 kb/sChannel(s)                     : 2 channelsChannel layout                 : L RSampling rate                  : 48.0 kHzFrame rate                     : 31.250 FPS (1536 SPF)Bit depth                      : 16 bitsCompression mode               : LossyStream size                    : 26.3 MiB (3%)Service kind                   : Complete Main

Скриншоты меню

Скриншоты

Сообщения из этой темы [4 шт.] были выделены в отдельную тему Оффтоп из: Горячая кровь / Безжалостная попутчица / Hot Blooded / Red-Blooded American Girl II (Дэвид Блит / David Blyth) [1997, США, Боевик, триллер, DVD5 (Cust [5727942]perrelcin

To download the content you need:
1. Download and install torrent client [for Windows] or for mobile system
2. Click on [Download]
Attention.
If the test YOU are NOT a ROBOT - does not work, then You are using an outdated browser.
Install the current browser and click on [Download]
Security: torrent client is allowed by Kaspersky.

[asmlocator.ru].t634088.torrent 
Torrent: Registered [ 2019-05-05 21:05 ] · BF9F81EC446FC663CEE60F3ECF29CC19AC7125AB

Download .torrent

Download

12 KB

Status: checked
Completed: 1 times
Size: 4.35 GB
terms.php
[Profile] [PM]
Display posts:    
Reply to topic

Current time is: 23-Aug 19:10

All times are UTC ± 0



You cannot post new topics in this forum
You cannot reply to topics in this forum
You cannot edit your posts in this forum
You cannot delete your posts in this forum
You cannot vote in polls in this forum
You cannot attach files in this forum
You can download files in this forum