Лёд (Олег Трофим) [2018, Россия, Мелодрама, драма, спорт, DVD5] + Original Rus

Ответить на тему
Статистика раздачи
Размер:  4,07 GB   |    Зарегистрирован:  4 месяца 18 дней   |    Скачан:  1 раз

Полного источника не было: 33 минуты

 
   
 
 
Автор Сообщение

star21 ®

Пол: Женский

Стаж: 3 года 10 месяцев

Сообщений: 551989

Откуда: Екатеринбург

Создавать темы 30-Апр-2019 13:50

[Цитировать]

ЛЁД Страна: Россия
Студия: Кинокомпания «Водород», Телеканал «РОССИЯ 1», Art Pictures Studio
Жанр: Мелодрама, драма, спорт
Год выпуска: 2018
Продолжительность: 01:53:03Перевод: Не требуется
Субтитры: нет
Оригинальная аудиодорожка: русскийРежиссер: Олег ТрофимВ ролях:
Аглая Тарасова, Диана Енакаева, Мария Аронова, Александр Петров, Милош Бикович, Ян Цапник, Ксения Раппопорт, Ксения Лаврова-Глинка, Павел Майков, Максим БелбородовОписание:
Надежда Лапшина с раннего детства мечтала и грезила только об одном - стать всемирно известной фигуристкой и взять все золото. Она с трудом уговорила тренера взяться ее учить, ведь в девочке, казалось, не было никакого таланта. Однако Наташа день и ночь трудилась и буквально жила на льду, стараясь добиться успеха. Понемногу, но она брала все новые вершины: она одерживала победу на многих соревнованиях, ее выбрал самый популярный партнер, который еще больше прославил ее в мире фигурного катания. Но в один день все рушится и из-за ошибки молодого человека, Наташа получает страшную травму, врачи уже не верят в то, что она когда-либо сможет встать. Но молодой хоккеист Саша категорически отказывается в это верить и решает поднять девушку на ноги.| IMDb | КиноПоиск | Скачать сэмпл |За предоставленный DVD, огромное спасибо AKIM2B
Золотой орел, 2019 год
Победитель:
- Лучшая женская роль ( Аглая Тарасова )
- Лучшая музыка
Номинации:
- Лучший фильм
- Лучший сценарий
- Лучшая мужская роль (Александр Петров)
- Лучшая женская роль второго плана (Мария Аронова)
- Лучшая работа оператора
- Лучший монтаж
- Лучшая работа звукорежиссера
- Лучшие визуальные эффектыБонусы: - Музыкальный клипМеню: Есть, статичное, озвученное, на русском языкеТип релиза: DVD5
Контейнер: DVD-VideoВидео: PAL 16:9 (720x576) VBR Auto Letterboxed, ~ 5009.65 kbps avg, fps 25.000
Аудио: Russian (Dolby AC3, 6 ch) | AC3, 3/2 (L,C,R,SL,SR)+LFE ch, 448 kbps, 48.0 kHz, 16 bits

MediaInfo

Title: Led.2017.DVD5Size: 4.07 Gb ( 4 268 358,00 KBytes ) - DVD-5Enabled regions: 1, 2, 3, 4, 5, 6, 7, 8VTS_01 :  Play Length: 01:53:03  Video: PAL 16:9 (720x576) VBR, Auto Letterboxed  Audio:      Russian, AC3, 3/2 (L,C,R,SL,SR)+LFE ch, 448 kbps, Delay 0 mSecVTS_02 :  Play Length: 00:03:09  Video: PAL 16:9 (720x576) VBR, Auto Letterboxed  Audio:      Russian, AC3, 2/0 (L,R) ch, 192 kbps, Delay 0 mSecVTS_03 :  Play Length: 00:00:15  Video: PAL 16:9 (720x576) VBR, Auto Letterboxed  Audio:      Not specified, AC3, 2/0 (L,R) ch, 192 kbps, Delay 0 mSec===================================================Led.2017.DVD5\VIDEO_TS\VTS_01_1.VOBФормат                                   : MPEG-PSРазмер файла                             : 1000 МбайтПродолжительность                        : 29 м. 39 с.Режим общего битрейта                    : ПеременныйОбщий поток                              : 4715 Кбит/секВидеоИдентификатор                            : 224 (0xE0)Формат                                   : MPEG VideoВерсия формата                           : Version 2Профиль формата                          : Main@MainНастройки формата                        : CustomMatrix / BVOPПараметр BVOP формата                    : ДаПараметр матрицы формата                 : ВыборочнаяПараметр GOP формата                     : VariableСтруктура изображения                    : FrameПродолжительность                        : 29 м. 39 с.Вид битрейта                             : ПеременныйБитрейт                                  : 4173 Кбит/секМаксимальный битрейт                     : 7600 Кбит/секШирина                                   : 720 пикселейВысота                                   : 576 пикселейСоотношение сторон                       : 16:9Частота кадров                           : 25,000 кадров/секСтандарт вещания                         : PALЦветовое пространство                    : YUVСубдискретизация насыщенности            : 4:2:0Битовая глубина                          : 8 битТип развёртки                            : ЧересстрочнаяПорядок развёртки                        : Верхнее поле первоеМетод сжатия                             : С потерямиБит/(Пиксели*Кадры)                      : 0.403Временной код первого кадра              : 00:00:00:00Оригинал временного кода                 : Group of pictures headerGOP, открыто/закрыто                     : ОткрытоGOP, открыто/закрыто на первом кадре     : ЗакрытоРазмер потока                            : 885 Мбайт (89%)АудиоИдентификатор                            : 189 (0xBD)-128 (0x80)Формат                                   : AC-3Формат/Информация                        : Audio Coding 3Режим смешивания                         : DVD-VideoПродолжительность                        : 29 м. 39 с.Вид битрейта                             : ПостоянныйБитрейт                                  : 448 Кбит/секКаналы                                   : 6 каналовРасположение каналов                     : Front: L C R, Side: L R, LFEЧастота                                  : 48,0 КГцЧастота кадров                           : 31,250 кадров/сек (1536 SPF)Битовая глубина                          : 16 битМетод сжатия                             : С потерямиРазмер потока                            : 95,0 Мбайт (9%)ServiceKind/String                       : Complete MainМеню

Скриншоты меню

Скриншоты

Скриншоты доп. материалов


Чтобы скачать этот контент, Вам необходимо:
1. Скачать и установить торрент-клиент [клик для Windows], (для мобильного найдите на Play Маркет).
2. Кликнуть по [Скачать]


Внимание.
Если проверка ВЫ НЕ РОБОТ - не работает, значит Вы используете устаревший браузер.
Установите актуальный браузер и повторно кликните по [Скачать]
Безопасность: торрент-клиент разрешён АВ Касперского.

[asmlocator.ru].t633853.torrent 
Торрент: Зарегистрирован [ 2019-04-30 13:50 ] · 7A8B8FE2D316F1ECE2F58366B529064FD8E4E4D2

Скачать .torrent

Скачать

22 KB

Статус: проверено
Скачан: 1 раз
Размер: 4,07 GB
terms.php
[Профиль] [ЛС]
Показать сообщения:    
Ответить на тему

Текущее время: 18-Сен 18:43

Часовой пояс: UTC ± 0



Вы не можете начинать темы
Вы не можете отвечать на сообщения
Вы не можете редактировать свои сообщения
Вы не можете удалять свои сообщения
Вы не можете голосовать в опросах
Вы не можете прикреплять файлы к сообщениям
Вы можете скачивать файлы
Верим фактам, а не вранью Путина! Факт, что Правительство ведёт Россию к истреблению.
Так как численность населения падает, даже не смотря на приток эмигрантов!
Русская нация вымирает и вырождается, смешиваясь с эмигрантами!
Факт, что военных и граждан предприятий заставляют голосовать за партию Единая Россия и Путина
ПОД СТРАХОМ УВОЛЬНЕНИЯ!
Нам не нужно Правительство, блокирующее личную жизнь, интернет, нарушающее сохранность данных.
Все эти действия финансируются за счёт народа!