NHL 18/19, SC, EC: Round 1, Game 3. New York Islanders - Pittsburgh Penguins [14.04.2019, Хоккей, HDTV/1080i, TS/H.264, RU/INT, Eurosport]

Reply to topic
DL-List and Torrent activity
Size:  8.87 GB   |    Registered:  24 days   |    Completed:  0 times

Seeder not seen: Never

 
   
 
 
Author Message

star21 ®

Gender: Female

Longevity: 3 years 6 months

Posts: 552209

Location: Екатеринбург

Post 28-Apr-2019 13:15

[Quote]

NHL Stanley Cup Playoffs 2019
Round 1, Game 3
New York Islanders - Pittsburgh Penguins Год выпуска: 14.04.2019
Вид спорта: Хоккей
Комментарий: Профессиональный
Язык комментариев: Русский (Федотов, Юртаев) / ИнтершумОписание: NHL 18/19, SC, EC: Round 1, Game 3. New York Islanders - Pittsburgh Penguins.Автор рипа: Настольный ТеннисистКачество: HDTV
Формат: TS
Видео кодек: AVC
Аудио кодек: MP2
Видео: MPEG4 Video (H264) 1920x1080 (16:9) 25fps 10900kbps
Аудио: MPEG Audio 48000Hz stereo 192kbps

Скриншоты

Продолжительность

01:46:46

Счет

Счет

New York Islanders - Pittsburgh Penguins
4 - 1
(в серии 3 - 0)

MediaInfo

GeneralID                                       : 1 (0x1)Complete name                            : Y:\торрент\NHL 18-19, SC, EC Round 1, Game 3. New York Islanders - Pittsburgh Penguins Рутрекер.tsFormat                                   : MPEG-TSFile size                                : 8.87 GiBDuration                                 : 1 h 46 minOverall bit rate mode                    : VariableOverall bit rate                         : 11.9 Mb/sVideoID                                       : 301 (0x12D)Menu ID                                  : 26001 (0x6591)Format                                   : AVCFormat/Info                              : Advanced Video CodecFormat profile                           : High@L4Format settings                          : CABAC / 4 Ref FramesFormat settings, CABAC                   : YesFormat settings, RefFrames               : 4 framesCodec ID                                 : 27Duration                                 : 1 h 46 minBit rate                                 : 10.9 Mb/sWidth                                    : 1 920 pixelsHeight                                   : 1 080 pixelsDisplay aspect ratio                     : 16:9Frame rate                               : 25.000 FPSStandard                                 : ComponentColor space                              : YUVChroma subsampling                       : 4:2:0Bit depth                                : 8 bitsScan type                                : InterlacedScan type, store method                  : Separated fieldsScan order                               : Top Field FirstBits/(Pixel*Frame)                       : 0.211Stream size                              : 8.15 GiB (92%)Color range                              : LimitedColor primaries                          : BT.709Transfer characteristics                 : BT.709Matrix coefficients                      : BT.709Audio #1ID                                       : 401 (0x191)Menu ID                                  : 26001 (0x6591)Format                                   : MPEG AudioFormat version                           : Version 1Format profile                           : Layer 2Codec ID                                 : 3Duration                                 : 1 h 46 minBit rate mode                            : ConstantBit rate                                 : 192 kb/sChannel(s)                               : 2 channelsSampling rate                            : 48.0 kHzFrame rate                               : 41.667 FPS (1152 SPF)Compression mode                         : LossyDelay relative to video                  : -40 msStream size                              : 147 MiB (2%)Language                                 : RussianAudio #2ID                                       : 402 (0x192)Menu ID                                  : 26001 (0x6591)Format                                   : MPEG AudioFormat version                           : Version 1Format profile                           : Layer 2Codec ID                                 : 3Duration                                 : 1 h 46 minBit rate mode                            : ConstantBit rate                                 : 192 kb/sChannel(s)                               : 2 channelsSampling rate                            : 48.0 kHzFrame rate                               : 41.667 FPS (1152 SPF)Compression mode                         : LossyDelay relative to video                  : -40 msStream size                              : 147 MiB (2%)Language                                 : English

To download the content you need:
1. Download and install torrent client [for Windows] or for mobile system
2. Click on [Download]
Attention.
If the test YOU are NOT a ROBOT - does not work, then You are using an outdated browser.
Install the current browser and click on [Download]
Security: torrent client is allowed by Kaspersky.

[asmlocator.ru].t633415.torrent 
Torrent: Registered [ 2019-04-28 13:15 ] · 24FD3EF7713D4C8125BA0EDCD40DD397C18440E0

Download .torrent

Download

45 KB

Status: checked
Completed: 0 times
Size: 8.87 GB
terms.php
[Profile] [PM]
Display posts:    
Reply to topic

Current time is: 23-May 02:06

All times are UTC ± 0



You cannot post new topics in this forum
You cannot reply to topics in this forum
You cannot edit your posts in this forum
You cannot delete your posts in this forum
You cannot vote in polls in this forum
You cannot attach files in this forum
You can download files in this forum