[MULT] Человек-паук: Через вселенные / Spider-Man: Into the Spider-Verse (Боб Персичетти / Bob Persichetti, Питер Рэмзи / Peter Ramsey, Родни Ротман / Rodney Rothman) [2018, мультфильм, фантастика, BDRip] [MP4, 1280x] [Оригинальный видеоряд]

Reply to topic
DL-List and Torrent activity
Size:  2.77 GB   |    Registered:  3 months 27 days   |    Completed:  0 times

Seeder not seen: Never

 
   
 
 
Author Message

star21 ®

Gender: Female

Longevity: 3 years 9 months

Posts: 551989

Location: Екатеринбург

Post 26-Apr-2019 16:00

[Quote]

Человек-паук: Через вселенные / Spider-Man: Into the Spider-Verse[Оригинальный видеоряд] Год выпуска: 2018
Страна: США / Avi Arad Productions, Columbia Pictures Corporation, Lord Miller, Marvel Animation, Marvel Entertainment, Pascal Pictures, Sony Pictures Animation, Sony Pictures Entertainment (SPE)
Жанр: мультфильм, фантастика, боевик, приключения, семейный
Продолжительность: 01:56:50
Перевод №1: русский Профессиональный (полное дублирование) BD EUR
Перевод №2: украинский Профессиональный (полное дублирование) BD EUR
Оригинальная дорожка: Есть (Английская)
Субтитры: русские (форсированные), (полные), украинские (форсированные), (полные), английские (полные), (SDH)Режиссеры: Боб Персичетти / Bob Persichetti, Питер Рэмзи / Peter Ramsey, Родни Ротман / Rodney RothmanРоли озвучивали: Шамеик Мур, Джейк Джонсон, Хейли Стайнфелд, Махершала Али, Брайан Тайри Генри, Лили Томлин, Лорен Велес, Зои Кравиц, Джон Мулэйни, Кимико Гленн, Николас Кейдж и другие .Описание: Мы всё знаем о Питере Паркере. Он спас город, влюбился, а потом спасал город снова и снова… Но все это — в нашем измерении. А что если в результате работы гигантского коллайдера откроется окно из одного измерения в другое? Найдется ли в нем свой Человек-паук? И как он будет выглядеть? Приготовьтесь к тому, что в разных вселенных могут быть разные Люди-пауки и однажды им придется собраться вместе для борьбы с почти непобедимым врагом . Качество: BDRip / рип с BDRemux 1080p (Кинозал)
Формат: MP4
Видео кодек: H.264
Аудио кодек: AAC
Видео: 1280x536 AR:2.39 3000 kbps 23.976 fps
Аудио №1: [Russian] 2ch 48 kHz 128 kbps - [Dub] Профессиональный (полное дублирование) BD EUR
Аудио №2: [Ukrainian] 2ch 48 kHz 128 kbps - [Dub] Профессиональный (полное дублирование) BD EUR
Аудио №3: [English] 2ch 48 kHz 128 kbps - Original (Английский)

Logx264

avs [info]: 1280x536p 1:1 @ 24000/1001 fps (cfr)
x264 [info]: using SAR=1/1
x264 [info]: using cpu capabilities: MMX2 SSE2Fast SSSE3 SSE4.2 AVX FMA3 BMI2 AVX2
x264 [info]: profile High, level 4.1
x264 [info]: cabac=1 ref=8 deblock=1:-2:-2 analyse=0x3:0x113 me=umh subme=11 psy=1 fade_compensate=0.00 psy_rd=0.75:0.00 mixed_ref=1 me_range=32 chroma_me=1 trellis=2 8x8dct=1 cqm=0 deadzone=21,11 fast_pskip=0 chroma_qp_offset=-2 threads=6 lookahead_threads=1 sliced_threads=0 nr=0 decimate=0 interlaced=0 bluray_compat=0 constrained_intra=0 bframes=9 b_pyramid=2 b_adapt=2 b_bias=0 direct=3 weightb=1 open_gop=0 weightp=2 keyint=250 keyint_min=23 scenecut=40 intra_refresh=0 rc=2pass mbtree=0 bitrate=3000 ratetol=1.0 qcomp=0.70 qpmin=0 qpmax=69 qpstep=4 cplxblur=20.0 qblur=0.5 ip_ratio=1.40 pb_ratio=1.30 aq=3:0.80
x264 [info]: frame I:1748 Avg QP:17.35 size:100150
x264 [info]: frame P:50330 Avg QP:22.68 size: 28975
x264 [info]: frame B:115994 Avg QP:23.78 size: 8586
x264 [info]: consecutive B-frames: 6.5% 10.6% 10.0% 44.3% 10.4% 10.4% 2.5% 4.3% 0.7% 0.4%
x264 [info]: mb I I16..4: 4.7% 68.6% 26.6%
x264 [info]: mb P I16..4: 1.8% 12.0% 4.4% P16..4: 31.1% 29.9% 9.8% 0.0% 0.0% skip:11.0%
x264 [info]: mb B I16..4: 0.3% 1.5% 0.5% B16..8: 30.4% 15.1% 2.8% direct: 3.1% skip:46.2% L0:44.5% L1:44.6% BI:10.9%
x264 [info]: 8x8 transform intra:66.1% inter:59.7%
x264 [info]: direct mvs spatial:93.6% temporal:6.4%
x264 [info]: coded y,uvDC,uvAC intra: 75.0% 80.2% 62.7% inter: 16.8% 19.7% 11.5%
x264 [info]: i16 v,h,dc,p: 22% 28% 7% 43%
x264 [info]: i8 v,h,dc,ddl,ddr,vr,hd,vl,hu: 10% 8% 9% 11% 14% 11% 13% 10% 14%
x264 [info]: i4 v,h,dc,ddl,ddr,vr,hd,vl,hu: 13% 10% 8% 9% 13% 11% 12% 9% 14%
x264 [info]: i8c dc,h,v,p: 40% 26% 18% 16%
x264 [info]: Weighted P-Frames: Y:12.5% UV:9.5%
x264 [info]: ref P L0: 52.3% 10.5% 16.1% 6.5% 4.8% 3.9% 3.2% 2.2% 0.4% 0.0%
x264 [info]: ref B L0: 78.2% 10.2% 5.2% 2.6% 1.9% 1.3% 0.6%
x264 [info]: ref B L1: 95.1% 4.9%
x264 [info]: kb/s:3000.64encoded 168072 frames, 11.85 fps, 3000.64 kb/s, duration 3:56:24.09

ТХ/MediaInfo

GeneralComplete name                            : K:\Torrents\Spider-Man Into the Spider-Verse.2018.BDRip.x264.1280x.rip by Frost O.S.mp4Format                                   : MPEG-4Format profile                           : Base MediaCodec ID                                 : isom (isom)File size                                : 2.77 GiBDuration                                 : 1 h 56 minOverall bit rate mode                    : VariableOverall bit rate                         : 3 393 kb/sEncoded date                             : UTC 2019-04-26 12:04:34Tagged date                              : UTC 2019-04-26 12:04:34Writing application                      : My MP4Box GUI 0.6.0.6VideoID                                       : 1Format                                   : AVCFormat/Info                              : Advanced Video CodecFormat profile                           : High@L4.1Format settings                          : CABAC / 8 Ref FramesFormat settings, CABAC                   : YesFormat settings, RefFrames               : 8 framesCodec ID                                 : avc1Codec ID/Info                            : Advanced Video CodingDuration                                 : 1 h 56 minBit rate                                 : 3 000 kb/sMaximum bit rate                         : 15.5 Mb/sWidth                                    : 1 280 pixelsHeight                                   : 536 pixelsDisplay aspect ratio                     : 2.40:1Frame rate mode                          : ConstantFrame rate                               : 23.976 (24000/1001) FPSColor space                              : YUVChroma subsampling                       : 4:2:0Bit depth                                : 8 bitsScan type                                : ProgressiveBits/(Pixel*Frame)                       : 0.182Stream size                              : 2.45 GiB (88%)Title                                    : Spider-Man Into the Spider-Verse.2018.BDRip.x264.1280x.rip by Frost O.SWriting library                          : x264 core 152 r2851kMod ba24899Encoding settings                        : cabac=1 / ref=8 / deblock=1:-2:-2 / analyse=0x3:0x113 / me=umh / subme=11 / psy=1 / fade_compensate=0.00 / psy_rd=0.75:0.00 / mixed_ref=1 / me_range=32 / chroma_me=1 / trellis=2 / 8x8dct=1 / cqm=0 / deadzone=21,11 / fast_pskip=0 / chroma_qp_offset=-2 / threads=6 / lookahead_threads=1 / sliced_threads=0 / nr=0 / decimate=0 / interlaced=0 / bluray_compat=0 / constrained_intra=0 / bframes=9 / b_pyramid=2 / b_adapt=2 / b_bias=0 / direct=3 / weightb=1 / open_gop=0 / weightp=2 / keyint=250 / keyint_min=23 / scenecut=40 / intra_refresh=0 / rc=2pass / mbtree=0 / bitrate=3000 / ratetol=1.0 / qcomp=0.70 / qpmin=0 / qpmax=69 / qpstep=4 / cplxblur=20.0 / qblur=0.5 / ip_ratio=1.40 / pb_ratio=1.30 / aq=3:0.80Encoded date                             : UTC 2019-04-26 11:44:39Tagged date                              : UTC 2019-04-26 12:04:56Color range                              : LimitedColor primaries                          : BT.709Transfer characteristics                 : BT.709Matrix coefficients                      : BT.709Audio #1ID                                       : 2Format                                   : AACFormat/Info                              : Advanced Audio CodecFormat profile                           : LCCodec ID                                 : mp4a-40-2Duration                                 : 1 h 56 minBit rate mode                            : VariableBit rate                                 : 128 kb/sMaximum bit rate                         : 135 kb/sChannel(s)                               : 2 channelsChannel positions                        : Front: L RSampling rate                            : 48.0 kHzFrame rate                               : 46.875 FPS (1024 SPF)Compression mode                         : LossyStream size                              : 107 MiB (4%)Title                                    : Russian / Dub, BD EUREncoded date                             : UTC 2019-04-26 12:04:51Tagged date                              : UTC 2019-04-26 12:04:56Audio #2ID                                       : 3Format                                   : AACFormat/Info                              : Advanced Audio CodecFormat profile                           : LCCodec ID                                 : mp4a-40-2Duration                                 : 1 h 56 minBit rate mode                            : VariableBit rate                                 : 128 kb/sMaximum bit rate                         : 137 kb/sChannel(s)                               : 2 channelsChannel positions                        : Front: L RSampling rate                            : 48.0 kHzFrame rate                               : 46.875 FPS (1024 SPF)Compression mode                         : LossyStream size                              : 107 MiB (4%)Title                                    : Ukrainian / Dub, BD EUREncoded date                             : UTC 2019-04-26 12:04:52Tagged date                              : UTC 2019-04-26 12:04:56Audio #3ID                                       : 4Format                                   : AACFormat/Info                              : Advanced Audio CodecFormat profile                           : LCCodec ID                                 : mp4a-40-2Duration                                 : 1 h 56 minBit rate mode                            : VariableBit rate                                 : 128 kb/sMaximum bit rate                         : 135 kb/sChannel(s)                               : 2 channelsChannel positions                        : Front: L RSampling rate                            : 48.0 kHzFrame rate                               : 46.875 FPS (1024 SPF)Compression mode                         : LossyStream size                              : 107 MiB (4%)Title                                    : English / OriginalEncoded date                             : UTC 2019-04-26 12:04:54Tagged date                              : UTC 2019-04-26 12:04:56Text #1ID                                       : 5Format                                   : Timed TextCodec ID                                 : tx3gDuration                                 : 1 h 56 minBit rate mode                            : VariableBit rate                                 : 3 b/sStream size                              : 2.37 KiB (0%)Title                                    : Russian / ForcedForced                                   : NoEncoded date                             : UTC 2019-04-26 12:04:56Tagged date                              : UTC 2019-04-26 12:04:56Text #2ID                                       : 6Format                                   : Timed TextCodec ID                                 : tx3gDuration                                 : 1 h 56 minBit rate mode                            : VariableBit rate                                 : 93 b/sStream size                              : 79.2 KiB (0%)Title                                    : Russian / FullForced                                   : NoEncoded date                             : UTC 2019-04-26 12:04:56Tagged date                              : UTC 2019-04-26 12:04:56Text #3ID                                       : 7Format                                   : Timed TextCodec ID                                 : tx3gDuration                                 : 1 h 56 minBit rate mode                            : VariableBit rate                                 : 2 b/sStream size                              : 1.48 KiB (0%)Title                                    : Ukrainian / ForcedForced                                   : NoEncoded date                             : UTC 2019-04-26 12:04:56Tagged date                              : UTC 2019-04-26 12:04:56Text #4ID                                       : 8Format                                   : Timed TextCodec ID                                 : tx3gDuration                                 : 1 h 56 minBit rate mode                            : VariableBit rate                                 : 91 b/sStream size                              : 77.8 KiB (0%)Title                                    : Ukrainian / FullForced                                   : NoEncoded date                             : UTC 2019-04-26 12:04:56Tagged date                              : UTC 2019-04-26 12:04:56Text #5ID                                       : 9Format                                   : Timed TextCodec ID                                 : tx3gDuration                                 : 1 h 56 minBit rate mode                            : VariableBit rate                                 : 65 b/sStream size                              : 55.3 KiB (0%)Title                                    : English / FullForced                                   : NoEncoded date                             : UTC 2019-04-26 12:04:56Tagged date                              : UTC 2019-04-26 12:04:56Text #6ID                                       : 10Format                                   : Timed TextCodec ID                                 : tx3gDuration                                 : 1 h 56 minBit rate mode                            : VariableBit rate                                 : 101 b/sStream size                              : 86.1 KiB (0%)Title                                    : English / SDHForced                                   : NoEncoded date                             : UTC 2019-04-26 12:04:56Tagged date                              : UTC 2019-04-26 12:04:56

To download the content you need:
1. Download and install torrent client [for Windows] or for mobile system
2. Click on [Download]
Attention.
If the test YOU are NOT a ROBOT - does not work, then You are using an outdated browser.
Install the current browser and click on [Download]
Security: torrent client is allowed by Kaspersky.

[asmlocator.ru].t632480.torrent 
Torrent: Registered [ 2019-04-26 16:00 ] · E9694404D79F61F87687295B5FFF4E5A583A7080

Download .torrent

Download

14 KB

Status: checked
Completed: 0 times
Size: 2.77 GB
terms.php
[Profile] [PM]
Display posts:    
Reply to topic

Current time is: 23-Aug 19:12

All times are UTC ± 0



You cannot post new topics in this forum
You cannot reply to topics in this forum
You cannot edit your posts in this forum
You cannot delete your posts in this forum
You cannot vote in polls in this forum
You cannot attach files in this forum
You can download files in this forum