[TR24][OF][FM] Суспирия / Suspiria Unreleased Material (by Thom Yorke (of Radiohead)) - 2019 (Score)

Reply to topic
DL-List and Torrent activity
Size:  302 MB   |    Registered:  3 months 26 days   |    Completed:  0 times

Seeder not seen: Never

 
   
 
 
Author Message

star21 ®

Gender: Female

Longevity: 3 years 9 months

Posts: 551989

Location: Екатеринбург

Post 25-Apr-2019 10:05

[Quote]

Thom Yorke / Suspiria Unreleased Material Формат записи/Источник записи: [TR24][OF]
Наличие водяных знаков: Нет
Год издания/переиздания диска: 2019
Жанр: Score / Electronic
Издатель (лейбл): XL Recordings
Продолжительность: 00:13:49
Наличие сканов в содержимом раздачи: Только обложка альбомаТреклист:
01. Unmade Overtones [1:30]
02. Unused Spell [0:50]
03. A Conversation With Just Your Eyes [5:17]
04. The7th7th7th7thson [1:08]
05. Volk Spin Off v1 [2:24]
06. Volk Spin Off v2 [0:53]
07. Volk Spin Off v3 [1:46]Контейнер: FLAC (*.flac)
Тип рипа: tracksРазрядность: 24/96
Формат: PCM
Количество каналов: 2.0

Лог проверки качества

foobar2000 1.4.3 / Dynamic Range Meter 1.1.1log date: 2019-03-29 17:03:45--------------------------------------------------------------------------------Analyzed: Thom Yorke / Suspiria Unreleased Material--------------------------------------------------------------------------------DR         Peak         RMS     Duration Track--------------------------------------------------------------------------------DR5       -0.32 dB    -7.58 dB      1:30 01-Unmade OvertonesDR10      -0.31 dB   -12.17 dB      0:50 02-Unused SpellDR9       -0.32 dB   -13.28 dB      5:17 03-A Conversation With Just Your EyesDR10      -0.32 dB   -15.03 dB      1:08 04-The7th7th7th7thsonDR10      -3.30 dB   -16.41 dB      2:24 05-Volk Spin Off v1DR10     -10.43 dB   -22.17 dB      0:53 06-Volk Spin Off v2DR12      -0.31 dB   -15.18 dB      1:46 07-Volk Spin Off v3--------------------------------------------------------------------------------Number of tracks:  7Official DR value: DR9Samplerate:        96000 HzChannels:          2Bits per sample:   24Bitrate:           2489 kbpsCodec:             FLAC================================================================================

Скриншот спектра частот

Источник (релизер): HDTracks

To download the content you need:
1. Download and install torrent client [for Windows] or for mobile system
2. Click on [Download]
Attention.
If the test YOU are NOT a ROBOT - does not work, then You are using an outdated browser.
Install the current browser and click on [Download]
Security: torrent client is allowed by Kaspersky.

[asmlocator.ru].t632072.torrent 
Torrent: Registered [ 2019-04-25 10:05 ] · 62E7F4B045E9BFB432F260DC7158260CA051418C

Download .torrent

Download

25 KB

Status: checked
Completed: 0 times
Size: 302 MB
terms.php
[Profile] [PM]
Display posts:    
Reply to topic

Current time is: 22-Aug 08:22

All times are UTC ± 0



You cannot post new topics in this forum
You cannot reply to topics in this forum
You cannot edit your posts in this forum
You cannot delete your posts in this forum
You cannot vote in polls in this forum
You cannot attach files in this forum
You can download files in this forum