(Calypso, Ska, Rumba, Rocksteady) Byron Lee And The Dragonaires - Jamaica Ska & Other Jamaican Party Anthems - 2004 (2CD), FLAC (tracks+.cue) lossless

Reply to topic
DL-List and Torrent activity
Size:  680 MB   |    Registered:  3 months 22 days   |    Completed:  3 times

Seeder not seen: 23 minutes

 
   
 
 
Author Message

star21 ®

Gender: Female

Longevity: 3 years 9 months

Posts: 551989

Location: Екатеринбург

Post 25-Apr-2019 07:55

[Quote]

Byron Lee And The Dragonaires / Jamaica Ska & Other Jamaican Party Anthems Жанр: Calypso, Ska, Rumba, Rocksteady
Страна-производитель диска: UK
Год издания диска: 2004
Издатель (лейбл): Trojan Records ‎
Номер по каталогу: TJDDD194
Аудиокодек: FLAC
Тип рипа: tracks+.cue
Битрейт аудио: lossless
Продолжительность: 01:54:06
Источник: скачано с
сайт-источник/ник/другое: локальная сеть
Наличие сканов в содержимом раздачи: да
Треклист:

CD1 (00:52:53)

1-1 Jamaica Ska
1-2 Sammy Dead
1-3 Come Back
1-4 She Will Never Let Me Down
1-5 Watermelon Man
1-6 Oil In My Lamp
1-7 Frankenstein Ska
1-8 Rough & Tough
1-9 Ska Dee Wah
1-10 Fat Back (Aka Tear Up)
1-11 Dumplins (1964 Version)
1-12 Walk Like A Dragon
1-13 Last Night
1-14 Napoleon Solo
1-15 Ride Your Donkey
1-16 Nice Time
1-17 Music Like Dirt
1-18 Ram Jam
1-19 Way Back Home
1-20 More Scorcher
1-21 Too Experienced

Лог создания рипа

Exact Audio Copy V0.99 prebeta 5 from 4. May 2009EAC extraction logfile from 19. February 2010, 10:13Byron Lee And The Bragonaires / Jamaica Ska & Other Jamaican Party Anthems (CD2)Used drive  : Optiarc DVD RW AD-7590S   Adapter: 2  ID: 0Read mode               : SecureUtilize accurate stream : YesDefeat audio cache      : YesMake use of C2 pointers : NoRead offset correction                      : 48Overread into Lead-In and Lead-Out          : NoFill up missing offset samples with silence : YesDelete leading and trailing silent blocks   : NoNull samples used in CRC calculations       : YesUsed interface                              : Installed external ASPI interfaceGap handling                                : Appended to previous trackUsed output format              : User Defined EncoderSelected bitrate                : 768 kBit/sQuality                         : HighAdd ID3 tag                     : NoCommand line compressor         : C:\Program Files\Exact Audio Copy\flac.exeAdditional command line options : -6 -V -T "ARTIST=%a" -T "TITLE=%t" -T "ALBUM=%g" -T "DATE=%y" -T "TRACKNUMBER=%n" -T "GENRE=%m" -T "COMMENT=%e" %s -o %dTOC of the extracted CD     Track |   Start  |  Length  | Start sector | End sector    ---------------------------------------------------------        1  |  0:00.00 |  2:29.71 |         0    |    11245        2  |  2:29.71 |  2:15.63 |     11246    |    21433        3  |  4:45.59 |  3:01.35 |     21434    |    35043        4  |  7:47.19 |  2:02.36 |     35044    |    44229        5  |  9:49.55 |  2:34.14 |     44230    |    55793        6  | 12:23.69 |  2:31.31 |     55794    |    67149        7  | 14:55.25 |  2:40.01 |     67150    |    79150        8  | 17:35.26 |  2:34.10 |     79151    |    90710        9  | 20:09.36 |  2:12.47 |     90711    |   100657       10  | 22:22.08 |  2:35.48 |    100658    |   112330       11  | 24:57.56 |  2:35.49 |    112331    |   124004       12  | 27:33.30 |  2:31.05 |    124005    |   135334       13  | 30:04.35 |  2:08.09 |    135335    |   144943       14  | 32:12.44 |  2:17.53 |    144944    |   155271       15  | 34:30.22 |  2:21.09 |    155272    |   165855       16  | 36:51.31 |  2:36.32 |    165856    |   177587       17  | 39:27.63 |  2:44.25 |    177588    |   189912       18  | 42:12.13 |  2:08.03 |    189913    |   199515       19  | 44:20.16 |  2:43.26 |    199516    |   211766       20  | 47:03.42 |  2:38.60 |    211767    |   223676       21  | 49:42.27 |  3:19.33 |    223677    |   238634Track  1     Filename C:\Addis Gugsa love your HDD\01 - Jamaica Ska (With Keith & Ken).wav     Pre-gap length  0:00:02.00     Peak level 98.8 %     Track quality 100.0 %     Test CRC DB75CEB7     Copy CRC DB75CEB7     Accurately ripped (confidence 1)  [F5E6EC49]     Copy OKTrack  2     Filename C:\Addis Gugsa love your HDD\02 - Sammy Dead (With Eric Monty Morris).wav     Pre-gap length  0:00:01.53     Peak level 98.8 %     Track quality 100.0 %     Test CRC 4082C1C8     Copy CRC 4082C1C8     Accurately ripped (confidence 1)  [AFD27DDF]     Copy OKTrack  3     Filename C:\Addis Gugsa love your HDD\03 - Come Back (With Stranger & PAtsy).wav     Pre-gap length  0:00:01.20     Peak level 98.8 %     Track quality 100.0 %     Test CRC 2E2AA0E5     Copy CRC 2E2AA0E5     Accurately ripped (confidence 1)  [75AEA6E8]     Copy OKTrack  4     Filename C:\Addis Gugsa love your HDD\04 - She Will Never Let Me Down (With The Maytals).wav     Pre-gap length  0:00:02.04     Peak level 92.2 %     Track quality 100.0 %     Test CRC 65CA511C     Copy CRC 65CA511C     Accurately ripped (confidence 1)  [4009CE26]     Copy OKTrack  5     Filename C:\Addis Gugsa love your HDD\05 - Watermelon Man.wav     Pre-gap length  0:00:01.60     Peak level 98.8 %     Track quality 100.0 %     Test CRC 6EC4F8E0     Copy CRC 6EC4F8E0     Accurately ripped (confidence 1)  [14A3A167]     Copy OKTrack  6     Filename C:\Addis Gugsa love your HDD\06 - Oil In My Lamp (With Eric Monty Morris).wav     Pre-gap length  0:00:02.26     Peak level 98.8 %     Track quality 99.9 %     Test CRC 6A067A1E     Copy CRC 6A067A1E     Accurately ripped (confidence 1)  [6125309C]     Copy OKTrack  7     Filename C:\Addis Gugsa love your HDD\07 - Frankenstein Ska.wav     Pre-gap length  0:00:00.86     Peak level 98.8 %     Track quality 100.0 %     Test CRC 8288032A     Copy CRC 8288032A     Accurately ripped (confidence 1)  [B78816F9]     Copy OKTrack  8     Filename C:\Addis Gugsa love your HDD\08 - Rough & Tough (Keith & Ken).wav     Pre-gap length  0:00:02.29     Peak level 85.4 %     Track quality 100.0 %     Test CRC A33F0108     Copy CRC A33F0108     Accurately ripped (confidence 1)  [B2FE5732]     Copy OKTrack  9     Filename C:\Addis Gugsa love your HDD\09 - Ska Dee Wah.wav     Pre-gap length  0:00:02.68     Peak level 98.8 %     Track quality 100.0 %     Test CRC C472CE4B     Copy CRC C472CE4B     Accurately ripped (confidence 1)  [D53716AC]     Copy OKTrack 10     Filename C:\Addis Gugsa love your HDD\10 - Fat Back (Aka Tear Up).wav     Pre-gap length  0:00:03.01     Peak level 98.8 %     Track quality 100.0 %     Test CRC 5EC75096     Copy CRC 5EC75096     Accurately ripped (confidence 1)  [AF33FE9D]     Copy OKTrack 11     Filename C:\Addis Gugsa love your HDD\11 - Dumplins (1964 Version).wav     Pre-gap length  0:00:01.29     Peak level 95.5 %     Track quality 100.0 %     Test CRC 3F43C7CF     Copy CRC 3F43C7CF     Accurately ripped (confidence 1)  [36AD0AF3]     Copy OKTrack 12     Filename C:\Addis Gugsa love your HDD\12 - Walk Like A Dragon.wav     Pre-gap length  0:00:03.14     Peak level 98.8 %     Track quality 99.9 %     Test CRC CFB0A1C2     Copy CRC CFB0A1C2     Accurately ripped (confidence 1)  [EFF84FA8]     Copy OKTrack 13     Filename C:\Addis Gugsa love your HDD\13 - Last Night.wav     Pre-gap length  0:00:01.93     Peak level 98.8 %     Track quality 100.0 %     Test CRC D6DC6F35     Copy CRC D6DC6F35     Accurately ripped (confidence 1)  [DB72FA6E]     Copy OKTrack 14     Filename C:\Addis Gugsa love your HDD\14 - Napoleon Solo.wav     Pre-gap length  0:00:01.78     Peak level 99.7 %     Track quality 100.0 %     Test CRC 19B3E7EA     Copy CRC 19B3E7EA     Accurately ripped (confidence 1)  [BC598FFC]     Copy OKTrack 15     Filename C:\Addis Gugsa love your HDD\15 - Ride Your Donkey.wav     Pre-gap length  0:00:01.16     Peak level 98.8 %     Track quality 99.9 %     Test CRC EC110110     Copy CRC EC110110     Accurately ripped (confidence 1)  [74666311]     Copy OKTrack 16     Filename C:\Addis Gugsa love your HDD\16 - Nice Time.wav     Pre-gap length  0:00:02.10     Peak level 99.7 %     Track quality 100.0 %     Test CRC 6C5AAE02     Copy CRC 6C5AAE02     Accurately ripped (confidence 1)  [D31DC05A]     Copy OKTrack 17     Filename C:\Addis Gugsa love your HDD\17 - Music Like Dirt.wav     Pre-gap length  0:00:00.70     Peak level 99.7 %     Track quality 100.0 %     Test CRC B9D3D622     Copy CRC B9D3D622     Accurately ripped (confidence 1)  [9CC0F876]     Copy OKTrack 18     Filename C:\Addis Gugsa love your HDD\18 - Ram Jam.wav     Pre-gap length  0:00:00.98     Peak level 99.7 %     Track quality 100.0 %     Test CRC 3D6370DF     Copy CRC 3D6370DF     Accurately ripped (confidence 1)  [122DADE7]     Copy OKTrack 19     Filename C:\Addis Gugsa love your HDD\19 - Way Back Home.wav     Pre-gap length  0:00:02.24     Peak level 81.2 %     Track quality 99.9 %     Test CRC 873DF616     Copy CRC 873DF616     Accurately ripped (confidence 1)  [99E4B530]     Copy OKTrack 20     Filename C:\Addis Gugsa love your HDD\20 - More Scorcher.wav     Pre-gap length  0:00:00.97     Peak level 86.9 %     Track quality 100.0 %     Test CRC 21CE6611     Copy CRC 21CE6611     Accurately ripped (confidence 1)  [96EF670E]     Copy OKTrack 21     Filename C:\Addis Gugsa love your HDD\21 - Too Experienced.wav     Pre-gap length  0:00:01.61     Peak level 86.1 %     Track quality 100.0 %     Test CRC F6BCC93E     Copy CRC F6BCC93E     Accurately ripped (confidence 1)  [C9F23C06]     Copy OKAll tracks accurately rippedNo errors occurredEnd of status report

Содержание индексной карты (.CUE)

REM GENRE SkaREM DATE 2004REM DISCID 380C6D15REM COMMENT "ExactAudioCopy v0.99pb5"PERFORMER "Byron Lee And The Bragonaires"TITLE "Jamaica Ska & Other Jamaican Party Anthems (CD2)"FILE "01 - Jamaica Ska (With Keith & Ken).wav" WAVE  TRACK 01 AUDIO    TITLE "Jamaica Ska (With Keith & Ken)"    PERFORMER "Byron Lee And The Bragonaires"    INDEX 01 00:00:00  TRACK 02 AUDIO    TITLE "Sammy Dead (With Eric Monty Morris)"    PERFORMER "Byron Lee And The Bragonaires"    INDEX 00 02:28:31FILE "02 - Sammy Dead (With Eric Monty Morris).wav" WAVE    INDEX 01 00:00:00  TRACK 03 AUDIO    TITLE "Come Back (With Stranger & PAtsy)"    PERFORMER "Byron Lee And The Bragonaires"    INDEX 00 02:14:48FILE "03 - Come Back (With Stranger & PAtsy).wav" WAVE    INDEX 01 00:00:00  TRACK 04 AUDIO    TITLE "She Will Never Let Me Down (With The Maytals)"    PERFORMER "Byron Lee And The Bragonaires"    INDEX 00 02:59:32FILE "04 - She Will Never Let Me Down (With The Maytals).wav" WAVE    INDEX 01 00:00:00  TRACK 05 AUDIO    TITLE "Watermelon Man"    PERFORMER "Byron Lee And The Bragonaires"    INDEX 00 02:00:66FILE "05 - Watermelon Man.wav" WAVE    INDEX 01 00:00:00  TRACK 06 AUDIO    TITLE "Oil In My Lamp (With Eric Monty Morris)"    PERFORMER "Byron Lee And The Bragonaires"    INDEX 00 02:31:69FILE "06 - Oil In My Lamp (With Eric Monty Morris).wav" WAVE    INDEX 01 00:00:00  TRACK 07 AUDIO    TITLE "Frankenstein Ska"    PERFORMER "Byron Lee And The Bragonaires"    INDEX 00 02:30:41FILE "07 - Frankenstein Ska.wav" WAVE    INDEX 01 00:00:00  TRACK 08 AUDIO    TITLE "Rough & Tough (Keith & Ken)"    PERFORMER "Byron Lee And The Bragonaires"    INDEX 00 02:37:54FILE "08 - Rough & Tough (Keith & Ken).wav" WAVE    INDEX 01 00:00:00  TRACK 09 AUDIO    TITLE "Ska Dee Wah"    PERFORMER "Byron Lee And The Bragonaires"    INDEX 00 02:31:34FILE "09 - Ska Dee Wah.wav" WAVE    INDEX 01 00:00:00  TRACK 10 AUDIO    TITLE "Fat Back (Aka Tear Up)"    PERFORMER "Byron Lee And The Bragonaires"    INDEX 00 02:09:46FILE "10 - Fat Back (Aka Tear Up).wav" WAVE    INDEX 01 00:00:00  TRACK 11 AUDIO    TITLE "Dumplins (1964 Version)"    PERFORMER "Byron Lee And The Bragonaires"    INDEX 00 02:34:26FILE "11 - Dumplins (1964 Version).wav" WAVE    INDEX 01 00:00:00  TRACK 12 AUDIO    TITLE "Walk Like A Dragon"    PERFORMER "Byron Lee And The Bragonaires"    INDEX 00 02:32:38FILE "12 - Walk Like A Dragon.wav" WAVE    INDEX 01 00:00:00  TRACK 13 AUDIO    TITLE "Last Night"    PERFORMER "Byron Lee And The Bragonaires"    INDEX 00 02:29:10FILE "13 - Last Night.wav" WAVE    INDEX 01 00:00:00  TRACK 14 AUDIO    TITLE "Napoleon Solo"    PERFORMER "Byron Lee And The Bragonaires"    INDEX 00 02:06:25FILE "14 - Napoleon Solo.wav" WAVE    INDEX 01 00:00:00  TRACK 15 AUDIO    TITLE "Ride Your Donkey"    PERFORMER "Byron Lee And The Bragonaires"    INDEX 00 02:16:41FILE "15 - Ride Your Donkey.wav" WAVE    INDEX 01 00:00:00  TRACK 16 AUDIO    TITLE "Nice Time"    PERFORMER "Byron Lee And The Bragonaires"    INDEX 00 02:19:01FILE "16 - Nice Time.wav" WAVE    INDEX 01 00:00:00  TRACK 17 AUDIO    TITLE "Music Like Dirt"    PERFORMER "Byron Lee And The Bragonaires"    INDEX 00 02:35:54FILE "17 - Music Like Dirt.wav" WAVE    INDEX 01 00:00:00  TRACK 18 AUDIO    TITLE "Ram Jam"    PERFORMER "Byron Lee And The Bragonaires"    INDEX 00 02:43:26FILE "18 - Ram Jam.wav" WAVE    INDEX 01 00:00:00  TRACK 19 AUDIO    TITLE "Way Back Home"    PERFORMER "Byron Lee And The Bragonaires"    INDEX 00 02:05:60FILE "19 - Way Back Home.wav" WAVE    INDEX 01 00:00:00  TRACK 20 AUDIO    TITLE "More Scorcher"    PERFORMER "Byron Lee And The Bragonaires"    INDEX 00 02:42:28FILE "20 - More Scorcher.wav" WAVE    INDEX 01 00:00:00  TRACK 21 AUDIO    TITLE "Too Experienced"    PERFORMER "Byron Lee And The Bragonaires"    INDEX 00 02:37:14FILE "21 - Too Experienced.wav" WAVE    INDEX 01 00:00:00

CD2 (01:01:13)

2-1 Dumplins (1960 Version)
2-2 Kissin' Gal
2-3 Dragon's Paradise
2-4 Ol' Man River
2-5 Joy Ride
2-6 Village Ram
2-7 Green Onions
2-8 Desafinado
2-9 Elaine, Henry And Mama
2-10 River Bank Jump Up
2-11 Holiday
2-12 Goldfinger
2-13 Shaft
2-14 Message To A Blackman
2-15 Fire Fire (There's A Fire)
2-16 Psychedelic Train
2-17 Mawga Dawg
2-18 Poison Pressure
2-19 Bam Sa Bo
2-20 A Little Love
2-21 Cashbox
2-22 Express Yourself

Лог создания рипа

Exact Audio Copy V0.99 prebeta 5 from 4. May 2009EAC extraction logfile from 19. February 2010, 11:41Byron Lee And The Dragonaires / Jamaica Ska & Other Party Anthems (CD2)Used drive  : Optiarc DVD RW AD-7590S   Adapter: 2  ID: 0Read mode               : SecureUtilize accurate stream : YesDefeat audio cache      : YesMake use of C2 pointers : NoRead offset correction                      : 48Overread into Lead-In and Lead-Out          : NoFill up missing offset samples with silence : YesDelete leading and trailing silent blocks   : NoNull samples used in CRC calculations       : YesUsed interface                              : Installed external ASPI interfaceGap handling                                : Appended to previous trackUsed output format              : User Defined EncoderSelected bitrate                : 768 kBit/sQuality                         : HighAdd ID3 tag                     : NoCommand line compressor         : C:\Program Files\Exact Audio Copy\flac.exeAdditional command line options : -6 -V -T "ARTIST=%a" -T "TITLE=%t" -T "ALBUM=%g" -T "DATE=%y" -T "TRACKNUMBER=%n" -T "GENRE=%m" -T "COMMENT=%e" %s -o %dTOC of the extracted CD     Track |   Start  |  Length  | Start sector | End sector    ---------------------------------------------------------        1  |  0:00.00 |  2:47.14 |         0    |    12538        2  |  2:47.14 |  2:41.28 |     12539    |    24641        3  |  5:28.42 |  2:11.49 |     24642    |    34515        4  |  7:40.16 |  3:42.13 |     34516    |    51178        5  | 11:22.29 |  2:35.29 |     51179    |    62832        6  | 13:57.58 |  2:34.16 |     62833    |    74398        7  | 16:31.74 |  2:50.61 |     74399    |    87209        8  | 19:22.60 |  3:24.57 |     87210    |   102566        9  | 22:47.42 |  3:32.03 |    102567    |   118469       10  | 26:19.45 |  2:18.47 |    118470    |   128866       11  | 28:38.17 |  2:49.59 |    128867    |   141600       12  | 31:28.01 |  2:57.71 |    141601    |   154946       13  | 34:25.72 |  3:12.55 |    154947    |   169401       14  | 37:38.52 |  2:48.01 |    169402    |   182002       15  | 40:26.53 |  2:15.46 |    182003    |   192173       16  | 42:42.24 |  2:23.51 |    192174    |   202949       17  | 45:06.00 |  2:20.20 |    202950    |   213469       18  | 47:26.20 |  3:22.00 |    213470    |   228619       19  | 50:48.20 |  2:46.12 |    228620    |   241081       20  | 53:34.32 |  2:34.68 |    241082    |   252699       21  | 56:09.25 |  2:28.46 |    252700    |   263845       22  | 58:37.71 |  2:45.67 |    263846    |   276287Track  1     Filename C:\Addis Gugsa love your HDD\01 - Dumplins (1960 Version).wav     Pre-gap length  0:00:02.00     Peak level 85.7 %     Track quality 100.0 %     Test CRC 62E5980A     Copy CRC 62E5980A     Accurately ripped (confidence 1)  [466828AF]     Copy OKTrack  2     Filename C:\Addis Gugsa love your HDD\02 - Kissin' Gal (With Buddy Davidson).wav     Pre-gap length  0:00:02.33     Peak level 86.2 %     Track quality 99.9 %     Test CRC F0C3B006     Copy CRC F0C3B006     Accurately ripped (confidence 1)  [444B0113]     Copy OKTrack  3     Filename C:\Addis Gugsa love your HDD\03 - Dragon's Paradise.wav     Pre-gap length  0:00:02.73     Peak level 86.9 %     Track quality 100.0 %     Test CRC 883A55E2     Copy CRC 883A55E2     Accurately ripped (confidence 1)  [25C50A6B]     Copy OKTrack  4     Filename C:\Addis Gugsa love your HDD\04 - Ol' Man River.wav     Pre-gap length  0:00:02.65     Peak level 99.7 %     Track quality 99.9 %     Test CRC DB79B234     Copy CRC DB79B234     Accurately ripped (confidence 1)  [A86853D0]     Copy OKTrack  5     Filename C:\Addis Gugsa love your HDD\05 - Joy Ride.wav     Pre-gap length  0:00:00.13     Peak level 92.2 %     Track quality 99.9 %     Test CRC 47095E46     Copy CRC 47095E46     Accurately ripped (confidence 1)  [E7095203]     Copy OKTrack  6     Filename C:\Addis Gugsa love your HDD\06 - Village Ram.wav     Pre-gap length  0:00:02.25     Peak level 98.8 %     Track quality 100.0 %     Test CRC 03B45392     Copy CRC 03B45392     Accurately ripped (confidence 1)  [2BADAAC9]     Copy OKTrack  7     Filename C:\Addis Gugsa love your HDD\07 - Green Onions.wav     Pre-gap length  0:00:01.05     Peak level 98.9 %     Track quality 100.0 %     Test CRC 4558C8E1     Copy CRC 4558C8E1     Accurately ripped (confidence 1)  [938CB8C9]     Copy OKTrack  8     Filename C:\Addis Gugsa love your HDD\08 - Desafinado.wav     Pre-gap length  0:00:00.64     Peak level 98.8 %     Track quality 100.0 %     Test CRC B6F4B19D     Copy CRC B6F4B19D     Accurately ripped (confidence 1)  [7D2AF0F1]     Copy OKTrack  9     Filename C:\Addis Gugsa love your HDD\09 - Elaine, Henry And Mama.wav     Pre-gap length  0:00:02.32     Peak level 92.2 %     Track quality 100.0 %     Test CRC 894C18BC     Copy CRC 894C18BC     Accurately ripped (confidence 1)  [FD96C51B]     Copy OKTrack 10     Filename C:\Addis Gugsa love your HDD\10 - River Bank Jump Up.wav     Pre-gap length  0:00:01.89     Peak level 98.8 %     Track quality 100.0 %     Test CRC 150E402C     Copy CRC 150E402C     Accurately ripped (confidence 1)  [7E4AAF25]     Copy OKTrack 11     Filename C:\Addis Gugsa love your HDD\11 - Holiday.wav     Pre-gap length  0:00:02.24     Peak level 96.1 %     Track quality 100.0 %     Test CRC E1AE979E     Copy CRC E1AE979E     Accurately ripped (confidence 1)  [DD3B15BC]     Copy OKTrack 12     Filename C:\Addis Gugsa love your HDD\12 - Goldfinger.wav     Pre-gap length  0:00:00.42     Peak level 88.1 %     Track quality 100.0 %     Test CRC 5D1AEC6E     Copy CRC 5D1AEC6E     Accurately ripped (confidence 1)  [E9B7E832]     Copy OKTrack 13     Filename C:\Addis Gugsa love your HDD\13 - Shaft.wav     Pre-gap length  0:00:01.46     Peak level 98.8 %     Track quality 100.0 %     Test CRC AF0142B7     Copy CRC AF0142B7     Accurately ripped (confidence 1)  [161CE7F1]     Copy OKTrack 14     Filename C:\Addis Gugsa love your HDD\14 - Message To A Blackman.wav     Pre-gap length  0:00:02.34     Peak level 98.8 %     Track quality 99.9 %     Test CRC 31C1A46A     Copy CRC 31C1A46A     Accurately ripped (confidence 1)  [403FA328]     Copy OKTrack 15     Filename C:\Addis Gugsa love your HDD\15 - Fire Fire (There's A Fire).wav     Pre-gap length  0:00:02.02     Peak level 98.8 %     Track quality 100.0 %     Test CRC F0454C1A     Copy CRC F0454C1A     Accurately ripped (confidence 1)  [9BEC5C7E]     Copy OKTrack 16     Filename C:\Addis Gugsa love your HDD\16 - Psychedelic Train.wav     Pre-gap length  0:00:01.86     Peak level 98.8 %     Track quality 100.0 %     Test CRC 2CCEB0B6     Copy CRC 2CCEB0B6     Accurately ripped (confidence 1)  [5F4796CE]     Copy OKTrack 17     Filename C:\Addis Gugsa love your HDD\17 - Mawga Dawg.wav     Pre-gap length  0:00:01.68     Peak level 98.8 %     Track quality 100.0 %     Test CRC 92651DB7     Copy CRC 92651DB7     Accurately ripped (confidence 1)  [1508A71C]     Copy OKTrack 18     Filename C:\Addis Gugsa love your HDD\18 - Poison Pressure.wav     Pre-gap length  0:00:02.69     Peak level 92.2 %     Track quality 100.0 %     Test CRC 284ECE80     Copy CRC 284ECE80     Accurately ripped (confidence 1)  [767128FE]     Copy OKTrack 19     Filename C:\Addis Gugsa love your HDD\19 - Bam Sa Bo.wav     Pre-gap length  0:00:02.85     Peak level 92.2 %     Track quality 100.0 %     Test CRC 96474248     Copy CRC 96474248     Accurately ripped (confidence 1)  [49706A3F]     Copy OKTrack 20     Filename C:\Addis Gugsa love your HDD\20 - A Little Love.wav     Pre-gap length  0:00:02.02     Peak level 98.8 %     Track quality 100.0 %     Test CRC C026BF99     Copy CRC C026BF99     Accurately ripped (confidence 1)  [16B77CC9]     Copy OKTrack 21     Filename C:\Addis Gugsa love your HDD\21 - Cashbox.wav     Pre-gap length  0:00:02.49     Peak level 98.8 %     Track quality 100.0 %     Test CRC 32920A16     Copy CRC 32920A16     Accurately ripped (confidence 1)  [903CD88B]     Copy OKTrack 22     Filename C:\Addis Gugsa love your HDD\22 - Express Yourself.wav     Pre-gap length  0:00:02.02     Peak level 99.7 %     Track quality 100.0 %     Test CRC 6676BF64     Copy CRC 6676BF64     Accurately ripped (confidence 1)  [3BC62349]     Copy OKAll tracks accurately rippedNo errors occurredEnd of status report

Содержание индексной карты (.CUE)

REM GENRE SkaREM DATE 2004REM DISCID 3F0E6316REM COMMENT "ExactAudioCopy v0.99pb5"PERFORMER "Byron Lee And The Dragonaires"TITLE "Jamaica Ska & Other Party Anthems (CD2)"FILE "01 - Dumplins (1960 Version).wav" WAVE  TRACK 01 AUDIO    TITLE "Dumplins (1960 Version)"    PERFORMER "Byron Lee And The Dragonaires"    INDEX 01 00:00:00  TRACK 02 AUDIO    TITLE "Kissin' Gal (With Buddy Davidson)"    PERFORMER "Byron Lee And The Dragonaires"    INDEX 00 02:44:64FILE "02 - Kissin' Gal (With Buddy Davidson).wav" WAVE    INDEX 01 00:00:00  TRACK 03 AUDIO    TITLE "Dragon's Paradise "    PERFORMER "Byron Lee And The Dragonaires"    INDEX 00 02:38:48FILE "03 - Dragon's Paradise.wav" WAVE    INDEX 01 00:00:00  TRACK 04 AUDIO    TITLE "Ol' Man River"    PERFORMER "Byron Lee And The Dragonaires"    INDEX 00 02:09:00FILE "04 - Ol' Man River.wav" WAVE    INDEX 01 00:00:00  TRACK 05 AUDIO    TITLE "Joy Ride"    PERFORMER "Byron Lee And The Dragonaires"    INDEX 00 03:42:03FILE "05 - Joy Ride.wav" WAVE    INDEX 01 00:00:00  TRACK 06 AUDIO    TITLE "Village Ram"    PERFORMER "Byron Lee And The Dragonaires"    INDEX 00 02:33:10FILE "06 - Village Ram.wav" WAVE    INDEX 01 00:00:00  TRACK 07 AUDIO    TITLE "Green Onions"    PERFORMER "Byron Lee And The Dragonaires"    INDEX 00 02:33:12FILE "07 - Green Onions.wav" WAVE    INDEX 01 00:00:00  TRACK 08 AUDIO    TITLE "Desafinado"    PERFORMER "Byron Lee And The Dragonaires"    INDEX 00 02:50:13FILE "08 - Desafinado.wav" WAVE    INDEX 01 00:00:00  TRACK 09 AUDIO    TITLE "Elaine, Henry And Mama"    PERFORMER "Byron Lee And The Dragonaires"    INDEX 00 03:22:33FILE "09 - Elaine, Henry And Mama.wav" WAVE    INDEX 01 00:00:00  TRACK 10 AUDIO    TITLE "River Bank Jump Up"    PERFORMER "Byron Lee And The Dragonaires"    INDEX 00 03:30:11FILE "10 - River Bank Jump Up.wav" WAVE    INDEX 01 00:00:00  TRACK 11 AUDIO    TITLE "Holiday"    PERFORMER "Byron Lee And The Dragonaires"    INDEX 00 02:16:29FILE "11 - Holiday.wav" WAVE    INDEX 01 00:00:00  TRACK 12 AUDIO    TITLE "Goldfinger"    PERFORMER "Byron Lee And The Dragonaires"    INDEX 00 02:49:27FILE "12 - Goldfinger.wav" WAVE    INDEX 01 00:00:00  TRACK 13 AUDIO    TITLE "Shaft"    PERFORMER "Byron Lee And The Dragonaires"    INDEX 00 02:56:36FILE "13 - Shaft.wav" WAVE    INDEX 01 00:00:00  TRACK 14 AUDIO    TITLE "Message To A Blackman"    PERFORMER "Byron Lee And The Dragonaires"    INDEX 00 03:10:29FILE "14 - Message To A Blackman.wav" WAVE    INDEX 01 00:00:00  TRACK 15 AUDIO    TITLE "Fire Fire (There's A Fire)"    PERFORMER "Byron Lee And The Dragonaires"    INDEX 00 02:45:74FILE "15 - Fire Fire (There's A Fire).wav" WAVE    INDEX 01 00:00:00  TRACK 16 AUDIO    TITLE "Psychedelic Train"    PERFORMER "Byron Lee And The Dragonaires"    INDEX 00 02:13:56FILE "16 - Psychedelic Train.wav" WAVE    INDEX 01 00:00:00  TRACK 17 AUDIO    TITLE "Mawga Dawg"    PERFORMER "Byron Lee And The Dragonaires"    INDEX 00 02:22:00FILE "17 - Mawga Dawg.wav" WAVE    INDEX 01 00:00:00  TRACK 18 AUDIO    TITLE "Poison Pressure"    PERFORMER "Byron Lee And The Dragonaires"    INDEX 00 02:17:43FILE "18 - Poison Pressure.wav" WAVE    INDEX 01 00:00:00  TRACK 19 AUDIO    TITLE "Bam Sa Bo"    PERFORMER "Byron Lee And The Dragonaires"    INDEX 00 03:19:11FILE "19 - Bam Sa Bo.wav" WAVE    INDEX 01 00:00:00  TRACK 20 AUDIO    TITLE "A Little Love"    PERFORMER "Byron Lee And The Dragonaires"    INDEX 00 02:44:10FILE "20 - A Little Love.wav" WAVE    INDEX 01 00:00:00  TRACK 21 AUDIO    TITLE "Cashbox"    PERFORMER "Byron Lee And The Dragonaires"    INDEX 00 02:32:31FILE "21 - Cashbox.wav" WAVE    INDEX 01 00:00:00  TRACK 22 AUDIO    TITLE "Express Yourself"    PERFORMER "Byron Lee And The Dragonaires"    INDEX 00 02:26:44FILE "22 - Express Yourself.wav" WAVE    INDEX 01 00:00:00

To download the content you need:
1. Download and install torrent client [for Windows] or for mobile system
2. Click on [Download]
Attention.
If the test YOU are NOT a ROBOT - does not work, then You are using an outdated browser.
Install the current browser and click on [Download]
Security: torrent client is allowed by Kaspersky.

[asmlocator.ru].t631993.torrent 
Torrent: Registered [ 2019-04-25 07:55 ] · C054EC3DF7E2944F35FEADAF9FA88E21AC96DEFB

Download .torrent

Download

17 KB

Status: checked
Completed: 3 times
Size: 680 MB
terms.php
[Profile] [PM]
Display posts:    
Reply to topic

Current time is: 17-Aug 11:53

All times are UTC ± 0



You cannot post new topics in this forum
You cannot reply to topics in this forum
You cannot edit your posts in this forum
You cannot delete your posts in this forum
You cannot vote in polls in this forum
You cannot attach files in this forum
You can download files in this forum