[TR24][OF][FM] Pinar Toprak - Captain Marvel (Капитан Марвел) - 2019 (Score)

Reply to topic
DL-List and Torrent activity
Size:  722 MB   |    Registered:  3 months 28 days   |    Completed:  0 times

Seeder not seen: Never

 
   
 
 
Author Message

star21 ®

Gender: Female

Longevity: 3 years 9 months

Posts: 551989

Location: Екатеринбург

Post 25-Apr-2019 01:25

[Quote]

Captain MarvelФормат/Источник записи: [TR24][OF][FM]
Наличие водяных знаков: Нет
Год издания: 2019
Жанр: Score
Лейбл: Marvel Music, Inc.
Продолжительность: 01:07:39
Контейнер: FLAC (*.flac)
Тип рипа: tracks
Разрядность: 24/48
Количество каналов: 2.0
Источник: WEB

Треклист

01. Captain Marvel
02. Waking Up
03. Boarding the Train
04. Why Do You Fight?
05. Let's Bring Him Home
06. Entering Enemy Territory
07. Breaking Free
08. Hot Pursuit
09. Lost the Target
10. Lifting Fingerprints
11. Finding the Records
12. Escaping the Basement
13. Photos of Us
14. Learning the Truth
15. New Clothes
16. Space Turbulence
17. High Score
18. Interrupting Something?
19. Trapped
20. I'm All Fired Up
21. More Problems
22. You Could Use a Jump
23. This Isn't Goodbye

foo_dr

foobar2000 1.3.16 / Dynamic Range Meter 1.1.1log date: 2019-03-07 14:26:35--------------------------------------------------------------------------------Analyzed: Pinar Toprak / Captain Marvel (Original Motion Picture Soundtrack)--------------------------------------------------------------------------------DR         Peak         RMS     Duration Track--------------------------------------------------------------------------------DR12      -0.18 dB   -15.07 dB      2:15 01-Captain MarvelDR8       -4.32 dB   -18.56 dB      1:29 02-Waking UpDR10      -0.20 dB   -16.05 dB      1:30 03-Boarding the TrainDR10      -0.17 dB   -15.81 dB      1:14 04-Why Do You Fight?DR10      -0.21 dB   -14.25 dB      1:39 05-Let's Bring Him HomeDR11      -0.02 dB   -15.39 dB      3:33 06-Entering Enemy TerritoryDR11      -0.10 dB   -14.82 dB      5:24 07-Breaking FreeDR12      -0.19 dB   -15.09 dB      4:35 08-Hot PursuitDR13      -0.20 dB   -18.50 dB      2:10 09-Lost the TargetDR11      -4.39 dB   -21.76 dB      1:32 10-Lifting FingerprintsDR14      -0.11 dB   -18.73 dB      5:20 11-Finding the RecordsDR13      -0.15 dB   -17.06 dB      4:23 12-Escaping the BasementDR11      -0.20 dB   -17.47 dB      1:56 13-Photos of UsDR11      -6.32 dB   -21.33 dB      3:16 14-Learning the TruthDR10      -3.63 dB   -20.21 dB      1:04 15-New ClothesDR10      -0.17 dB   -14.56 dB      2:58 16-Space TurbulenceDR10     -11.36 dB   -26.35 dB      2:35 17-High ScoreDR14      -0.19 dB   -20.14 dB      1:30 18-Interrupting Something?DR11      -0.14 dB   -14.91 dB      3:20 19-TrappedDR11      -0.14 dB   -14.66 dB      3:20 20-I'm All Fired UpDR8       -0.27 dB   -11.50 dB      8:16 21-More ProblemsDR11      -0.17 dB   -16.99 dB      1:45 22-You Could Use a JumpDR12      -0.18 dB   -17.81 dB      2:29 23-This Isn't Goodbye--------------------------------------------------------------------------------Number of tracks:  23Official DR value: DR11Samplerate:        48000 HzChannels:          2Bits per sample:   24Bitrate:           1471 kbpsCodec:             FLAC================================================================================

To download the content you need:
1. Download and install torrent client [for Windows] or for mobile system
2. Click on [Download]
Attention.
If the test YOU are NOT a ROBOT - does not work, then You are using an outdated browser.
Install the current browser and click on [Download]
Security: torrent client is allowed by Kaspersky.

[asmlocator.ru].t631868.torrent 
Torrent: Registered [ 2019-04-25 01:25 ] · B16DFB9D793D3EE6DE2CE3CCD06B2D83F2AFA0C0

Download .torrent

Download

16 KB

Status: checked
Completed: 0 times
Size: 722 MB
terms.php
[Profile] [PM]
Display posts:    
Reply to topic

Current time is: 23-Aug 16:47

All times are UTC ± 0



You cannot post new topics in this forum
You cannot reply to topics in this forum
You cannot edit your posts in this forum
You cannot delete your posts in this forum
You cannot vote in polls in this forum
You cannot attach files in this forum
You can download files in this forum