[VIDEO] Аквамен / Aquaman (Джеймс Ван / James Wan) [2018, фантастика, фэнтези, боевик, приключения, BDRip] [MP4, 1280x] [IMAX Edition] Dub (Rus, Ukr), Original, Sub (rus, ukr, eng)

Reply to topic
DL-List and Torrent activity
Size:  3.39 GB   |    Registered:  8 days   |    Completed:  3 times

Seeder not seen: 1 hour 2 minutes

 
   
 
 
Author Message

star21 ®

Gender: Female

Longevity: 3 years 5 months

Posts: 552392

Location: Екатеринбург

Post 14-Apr-2019 12:25

[Quote]

Аквамен / Aquaman[IMAX Edition] Год выпуска: 2018
Страна: Австралия, США / DC Comics, DC Entertainment, Panoramic Pictures, Warner Bros. Pictures
Жанр: фантастика, фэнтези, боевик, приключения
Продолжительность: 02:23:21
Перевод №1: русский Профессиональный (полное дублирование) Blu-ray EUR
Перевод №2: украинский Профессиональный (полное дублирование) iTunes
Оригинальная дорожка: Есть (Английская)
Субтитры: русские (форсированные), (полные), украинские (форсированные), английские (полные)Режиссер: Джеймс Ван / James WanВ ролях: Джейсон Момоа, Эмбер Хёрд, Дольф Лундгрен, Николь Кидман, Джули Эндрюс, Патрик Уилсон, Уиллем Дефо, Грэм МакТавиш, Талия Джейд, Джимон Хонсу, Темуэра Моррисон, Майкл Бич и другие .Описание: Действие фильма разворачивается в необъятном и захватывающем подводном мире семи морей, а сюжет знакомит зрителей с историей происхождения получеловека-полуатланта Артура Карри и ключевыми событиями его жизни — теми, что заставят его не только столкнуться с самим собой, но и выяснить, достоин ли он быть тем, кем ему суждено… царем! Качество: BDRip / рип с Blu-ray disc 1080p [EUR] [IMAX Edition]
Формат: MP4
Видео кодек: H.264
Аудио кодек: AAC
Видео: 1280x720 AR:1.78 3000 kbps 23.976 fps
Аудио №1: [Russian] 2ch 48 kHz 128 kbps - [Dub] Профессиональный (полное дублирование) Blu-ray EUR
Аудио №2: [Ukrainian] 2ch 48 kHz 128 kbps - [Dub] Профессиональный (полное дублирование) iTunes
Аудио №3: [English] 2ch 48 kHz 128 kbps - Original (Английский)

Logx264

avs [info]: 1280x720p 1:1 @ 24000/1001 fps (cfr)
x264 [info]: using SAR=1/1
x264 [info]: using cpu capabilities: MMX2 SSE2Fast SSSE3 SSE4.2 AVX FMA3 BMI2 AVX2
x264 [info]: profile High, level 4.1
x264 [info]: cabac=1 ref=8 deblock=1:-2:-2 analyse=0x3:0x113 me=umh subme=11 psy=1 fade_compensate=0.00 psy_rd=0.95:0.00 mixed_ref=1 me_range=32 chroma_me=1 trellis=2 8x8dct=1 cqm=0 deadzone=21,11 fast_pskip=0 chroma_qp_offset=-2 threads=6 lookahead_threads=1 sliced_threads=0 nr=0 decimate=0 interlaced=0 bluray_compat=0 constrained_intra=0 bframes=8 b_pyramid=2 b_adapt=2 b_bias=0 direct=3 weightb=1 open_gop=0 weightp=2 keyint=250 keyint_min=23 scenecut=40 intra_refresh=0 rc=2pass mbtree=0 bitrate=3000 ratetol=1.0 qcomp=0.70 qpmin=0 qpmax=69 qpstep=4 cplxblur=20.0 qblur=0.5 ip_ratio=1.40 pb_ratio=1.30 aq=1:0.80 zones=195066,206055,q=30
x264 [info]: frame I:1684 Avg QP:18.65 size: 81944
x264 [info]: frame P:56573 Avg QP:22.88 size: 28142
x264 [info]: frame B:147963 Avg QP:24.54 size: 10027
x264 [info]: consecutive B-frames: 4.8% 5.9% 9.6% 44.0% 14.6% 17.8% 1.9% 1.3% 0.2%
x264 [info]: mb I I16..4: 11.1% 68.1% 20.8%
x264 [info]: mb P I16..4: 1.5% 10.9% 1.5% P16..4: 33.8% 32.3% 6.9% 0.0% 0.0% skip:13.2%
x264 [info]: mb B I16..4: 0.2% 1.7% 0.2% B16..8: 36.5% 15.5% 1.9% direct: 3.6% skip:40.4% L0:42.9% L1:48.4% BI: 8.7%
x264 [info]: 8x8 transform intra:78.2% inter:70.2%
x264 [info]: direct mvs spatial:93.6% temporal:6.4%
x264 [info]: coded y,uvDC,uvAC intra: 80.5% 70.7% 38.2% inter: 19.2% 17.3% 4.0%
x264 [info]: i16 v,h,dc,p: 7% 22% 8% 63%
x264 [info]: i8 v,h,dc,ddl,ddr,vr,hd,vl,hu: 5% 5% 2% 11% 18% 14% 18% 12% 15%
x264 [info]: i4 v,h,dc,ddl,ddr,vr,hd,vl,hu: 7% 12% 5% 9% 15% 13% 16% 10% 14%
x264 [info]: i8c dc,h,v,p: 32% 29% 16% 22%
x264 [info]: Weighted P-Frames: Y:15.3% UV:11.3%
x264 [info]: ref P L0: 51.3% 12.1% 16.3% 6.2% 4.7% 3.5% 3.1% 2.1% 0.6% 0.1%
x264 [info]: ref B L0: 81.9% 8.5% 4.7% 2.0% 1.5% 1.0% 0.4%
x264 [info]: ref B L1: 96.4% 3.6%
x264 [info]: kb/s:2989.08encoded 206220 frames, 10.14 fps, 2989.08 kb/s, duration 5:38:57.74

ТХ/MediaInfo

GeneralComplete name                            : K:\Torrents\Aquaman.(IMAX Edition).2018.BDRip.x264.1280x.rip by Frost O.S.mp4Format                                   : MPEG-4Format profile                           : Base MediaCodec ID                                 : isom (isom)File size                                : 3.39 GiBDuration                                 : 2 h 23 minOverall bit rate mode                    : VariableOverall bit rate                         : 3 381 kb/sEncoded date                             : UTC 2019-04-14 07:23:30Tagged date                              : UTC 2019-04-14 07:23:30Writing application                      : My MP4Box GUI 0.6.0.6VideoID                                       : 1Format                                   : AVCFormat/Info                              : Advanced Video CodecFormat profile                           : High@L4.1Format settings                          : CABAC / 8 Ref FramesFormat settings, CABAC                   : YesFormat settings, RefFrames               : 8 framesCodec ID                                 : avc1Codec ID/Info                            : Advanced Video CodingDuration                                 : 2 h 23 minBit rate                                 : 3 000 kb/sMaximum bit rate                         : 13.2 Mb/sWidth                                    : 1 280 pixelsHeight                                   : 720 pixelsDisplay aspect ratio                     : 16:9Frame rate mode                          : ConstantFrame rate                               : 23.976 (24000/1001) FPSColor space                              : YUVChroma subsampling                       : 4:2:0Bit depth                                : 8 bitsScan type                                : ProgressiveBits/(Pixel*Frame)                       : 0.136Stream size                              : 2.99 GiB (88%)Title                                    : Aquaman.(IMAX Edition).2018.BDRip.x264.1280x.rip by Frost O.SWriting library                          : x264 core 152 r2851kMod ba24899Encoding settings                        : cabac=1 / ref=8 / deblock=1:-2:-2 / analyse=0x3:0x113 / me=umh / subme=11 / psy=1 / fade_compensate=0.00 / psy_rd=0.95:0.00 / mixed_ref=1 / me_range=32 / chroma_me=1 / trellis=2 / 8x8dct=1 / cqm=0 / deadzone=21,11 / fast_pskip=0 / chroma_qp_offset=-2 / threads=6 / lookahead_threads=1 / sliced_threads=0 / nr=0 / decimate=0 / interlaced=0 / bluray_compat=0 / constrained_intra=0 / bframes=8 / b_pyramid=2 / b_adapt=2 / b_bias=0 / direct=3 / weightb=1 / open_gop=0 / weightp=2 / keyint=250 / keyint_min=23 / scenecut=40 / intra_refresh=0 / rc=2pass / mbtree=0 / bitrate=3000 / ratetol=1.0 / qcomp=0.70 / qpmin=0 / qpmax=69 / qpstep=4 / cplxblur=20.0 / qblur=0.5 / ip_ratio=1.40 / pb_ratio=1.30 / aq=1:0.80 / zones=195066,206055,q=30Encoded date                             : UTC 2019-04-13 17:14:45Tagged date                              : UTC 2019-04-14 07:23:53Color range                              : LimitedColor primaries                          : BT.709Transfer characteristics                 : BT.709Matrix coefficients                      : BT.709Audio #1ID                                       : 2Format                                   : AACFormat/Info                              : Advanced Audio CodecFormat profile                           : LCCodec ID                                 : mp4a-40-2Duration                                 : 2 h 23 minBit rate mode                            : VariableBit rate                                 : 128 kb/sMaximum bit rate                         : 137 kb/sChannel(s)                               : 2 channelsChannel positions                        : Front: L RSampling rate                            : 48.0 kHzFrame rate                               : 46.875 FPS (1024 SPF)Compression mode                         : LossyStream size                              : 131 MiB (4%)Title                                    : Russian / Dub, Blu-ray EUREncoded date                             : UTC 2019-04-14 07:23:49Tagged date                              : UTC 2019-04-14 07:23:53Audio #2ID                                       : 3Format                                   : AACFormat/Info                              : Advanced Audio CodecFormat profile                           : LCCodec ID                                 : mp4a-40-2Duration                                 : 2 h 23 minBit rate mode                            : VariableBit rate                                 : 128 kb/sMaximum bit rate                         : 135 kb/sChannel(s)                               : 2 channelsChannel positions                        : Front: L RSampling rate                            : 48.0 kHzFrame rate                               : 46.875 FPS (1024 SPF)Compression mode                         : LossyStream size                              : 131 MiB (4%)Title                                    : Ukrainian / Dub, iTunesEncoded date                             : UTC 2019-04-14 07:23:51Tagged date                              : UTC 2019-04-14 07:23:53Audio #3ID                                       : 4Format                                   : AACFormat/Info                              : Advanced Audio CodecFormat profile                           : LCCodec ID                                 : mp4a-40-2Duration                                 : 2 h 23 minBit rate mode                            : VariableBit rate                                 : 128 kb/sMaximum bit rate                         : 135 kb/sChannel(s)                               : 2 channelsChannel positions                        : Front: L RSampling rate                            : 48.0 kHzFrame rate                               : 46.875 FPS (1024 SPF)Compression mode                         : LossyStream size                              : 131 MiB (4%)Title                                    : English / OriginalEncoded date                             : UTC 2019-04-14 07:23:52Tagged date                              : UTC 2019-04-14 07:23:53Text #1ID                                       : 5Format                                   : Timed TextCodec ID                                 : tx3gDuration                                 : 2 h 15 minBit rate mode                            : VariableBit rate                                 : 1 b/sStream size                              : 1.33 KiB (0%)Title                                    : Russian / ForcedForced                                   : NoEncoded date                             : UTC 2019-04-14 07:23:53Tagged date                              : UTC 2019-04-14 07:23:53Text #2ID                                       : 6Format                                   : Timed TextCodec ID                                 : tx3gDuration                                 : 2 h 23 minBit rate mode                            : VariableBit rate                                 : 61 b/sStream size                              : 63.6 KiB (0%)Title                                    : Russian / FullForced                                   : NoEncoded date                             : UTC 2019-04-14 07:23:53Tagged date                              : UTC 2019-04-14 07:23:53Text #3ID                                       : 7Format                                   : Timed TextCodec ID                                 : tx3gDuration                                 : 2 h 23 minBit rate mode                            : VariableBit rate                                 : 2 b/sStream size                              : 1.66 KiB (0%)Title                                    : Ukrainian / ForcedForced                                   : NoEncoded date                             : UTC 2019-04-14 07:23:53Tagged date                              : UTC 2019-04-14 07:23:53Text #4ID                                       : 8Format                                   : Timed TextCodec ID                                 : tx3gDuration                                 : 2 h 15 minBit rate mode                            : VariableBit rate                                 : 43 b/sStream size                              : 43.0 KiB (0%)Title                                    : English / FullForced                                   : NoEncoded date                             : UTC 2019-04-14 07:23:53Tagged date                              : UTC 2019-04-14 07:23:53

Скриншоты




To download the content you need:
1. Download and install torrent client [for Windows] or for mobile system
2. Click on [Download]
Attention.
If the test YOU are NOT a ROBOT - does not work, then You are using an outdated browser.
Install the current browser and click on [Download]
Security: torrent client is allowed by Kaspersky.

[asmlocator.ru].t628310.torrent 
Torrent: Registered [ 2019-04-14 12:25 ] · 2605E423F61C2DEDD30F9B5FB90AB3D7B4F1F8A0

Download .torrent

Download

17 KB

Status: checked
Completed: 3 times
Size: 3.39 GB
terms.php
[Profile] [PM]
Display posts:    
Reply to topic

Current time is: 22-Apr 15:02

All times are UTC ± 0



You cannot post new topics in this forum
You cannot reply to topics in this forum
You cannot edit your posts in this forum
You cannot delete your posts in this forum
You cannot vote in polls in this forum
You cannot attach files in this forum
You can download files in this forum