Невероятный доктор Пол / The Incredible Dr. Pol [Сезон 5, серии 1-7, 9-10 из 10] [2014, Документальный, IPTV 1080p]

Reply to topic
DL-List and Torrent activity
Size:  24.92 GB   |    Registered:  3 months 5 days   |    Completed:  0 times

Seeder not seen: Never

Leechers:  1  [  0.4 KB/s  ]   Show peers in full details
 
   
 
 
Author Message

star21 ®

Gender: Female

Longevity: 3 years 8 months

Posts: 552042

Location: Екатеринбург

Post 13-Apr-2019 02:50

[Quote]

Невероятный доктор Пол / The Incredible Dr. Pol - Сезон 5 Год выпуска: 2014
Страна: США
Студия: National Geographic
Жанр: Документальный
Продолжительность: 00:42:00 x 9
Перевод: Студийный (одноголосый закадровый)Описание: Доктор Ян Пол - эксцентричный ветеринар, который не покладая рук работает в своей успешной ветлечебнице в аграрном районе Центрального Мичигана, местная легенда, и у него более 19000 клиентов. Его жена Даян управляет бизнесом и поддерживает его. Доктор Бренда его правая рука. А его сын Чарльз помогает, когда есть возможность.
Передача повествует о его нелегкой увлекательной работе с ее особенностями и редкими моментами отдыха и развлечений.Сэмпл: СкачатьТип релиза: IPTV 1080p
Контейнер: TSВидео: AVC, 1920x1080, 16:9, 8500 kbps vbr avg, 25 fps
Аудио: RUS, MP2, stereo, 48000 Hz, 192 kbps

MediaInfo

GeneralID                          : 1 (0x1)Complete name               : G:\Video\The Incredible Dr. Pol S05 (2014)\S05E09 С поднятым копытом-The Upper Hoof.tsFormat                      : MPEG-TSFile size                   : 2.78 GiBDuration                    : 42 min 25 sOverall bit rate mode       : VariableOverall bit rate            : 9 370 kb/sVideoID                          : 256 (0x100)Menu ID                     : 1 (0x1)Format                      : AVCFormat/Info                 : Advanced Video CodecFormat profile              : Main@L4Format settings             : CABAC / 3 Ref FramesFormat settings, CABAC      : YesFormat settings, RefFrames  : 3 framesCodec ID                    : 27Duration                    : 42 min 25 sBit rate                    : 8 713 kb/sWidth                       : 1 920 pixelsHeight                      : 1 080 pixelsDisplay aspect ratio        : 16:9Frame rate                  : 25.000 FPSColor space                 : YUVChroma subsampling          : 4:2:0Bit depth                   : 8 bitsScan type                   : InterlacedScan type, store method     : Separated fieldsScan order                  : Top Field FirstBits/(Pixel*Frame)          : 0.168Stream size                 : 2.58 GiB (93%)Color range                 : LimitedColor primaries             : BT.709Transfer characteristics    : BT.709Matrix coefficients         : BT.709AudioID                          : 257 (0x101)Menu ID                     : 1 (0x1)Format                      : MPEG AudioFormat version              : Version 1Format profile              : Layer 2Codec ID                    : 3Duration                    : 42 min 25 sBit rate mode               : ConstantBit rate                    : 192 kb/sChannel(s)                  : 2 channelsSampling rate               : 48.0 kHzCompression mode            : LossyDelay relative to video     : 14 msStream size                 : 58.3 MiB (2%)MenuID                          : 4096 (0x1000)Menu ID                     : 1 (0x1)Duration                    : 42 min 25 sList                        : 256 (0x100) (AVC) / 257 (0x101) (MPEG Audio)Service name                : Service01Service provider            : FFmpegService type                : digital television

Список серий

01 Откройте рот пошире-Piggin' Out

В клинике доктора Пола хаос: сегодня на приёме наглая морская свинка, не дающая молодняку как следует наедаться. 12+

02 Чудесная доктор Бренда-The Amazing Dr. Brenda

На этой неделе у доктора Бренды дел невпроворот: нужно осмотреть лошадь с пищеварительными проблемами и собаку с огромной гноящейся раной. 12+

03 Воркующие голубки-Puppy Love

Сегодня доктору Полу нужно позаботиться о таксах, ротвейлерах и бездомном питбуле. Хватит ли у него сил ещё и на романтику? 12+

04 Коровопокалипсис-Apocalypse Cow

Доктор Пол занимается больными ногами одной злой коровы и помогает другой больной корове принять лекарство, которое потенциально может её убить.

05 Пришло ваше время, бычки-Here's Looking at Moo

Доктору Полу вручают награду за его самоотверженную работу. Позже он отправляется на ферму, чтобы кастрировать новых членов стада.

06 Час пик-Barking Bad

В клинике доктора Пола аншлаг: людей и животных столько, что не протолкнуться. Есть даже нервная альпака и осёл, страдающий от грибка. 12+

07 В шаге от духовки-Talk Turkey to Me

В этот День Благодарения птицы командуют Ветеринарныой Службой Пола, когда Чарльз ловит трех индюшек, которые сбежали. Тем временем доктор Пол помогает бродячим датскийм догам навсегда найти свой новый дом и ухаживает за любимой лошадью с ужаснымпорезом.

09 С поднятым копытом-The Upper Hoof

Для ветеринаров сегодня тяжелый день - доктор Пол сражается с четверкой здоровенных коров, которые никак не хотят, чтобы их проверяли на предмет беременности. Доктору Бренде приходится выехать по неотложному вызову к лошади Сиско, которая не встает из-за коликов в животе.

10 Пол-Тергейст-Pol-tergeist

Хэллоуин уже на пороге и доктору Полу приходится иметь дело с буйными животными. Сегодня доктора вымазали кровью, обмочили и даже пнули в колено.
Серия 08 есть в этой раздаче.

Скриншоты

Доп. инфо:

Сезон/серии пронумерованы в соответствии с оригинальной нумерацией:
https://www.nationalgeographic.com/tv/the-incredible-dr-pol/season-5/
Запись выполнена мною лично, с основного домашнего IPTV провайдера.

Другие серии/сезоны:

Сезон 1 (2011) - 01 из 6, HD
Сезон 3 (2013) - 6 из 6, HD
Сезон 4 (2014) - 10 из 10, HD
Сезон 5 (2014) - 1-7, 9-10 из 10, HD - эта раздача
Сезон 5 (2014) - 08 из 10, HD

To download the content you need:
1. Download and install torrent client [for Windows] or for mobile system
2. Click on [Download]
Attention.
If the test YOU are NOT a ROBOT - does not work, then You are using an outdated browser.
Install the current browser and click on [Download]
Security: torrent client is allowed by Kaspersky.

[asmlocator.ru].t628069.torrent 
Torrent: Registered [ 2019-04-13 02:50 ] · 0BD294526945DE4F101B1B76CE3803F4E5729615

Download .torrent

Download

64 KB

Status: checked
Completed: 0 times
Size: 24.92 GB
terms.php
[Profile] [PM]
Display posts:    
Reply to topic

Current time is: 18-Jul 20:30

All times are UTC ± 0



You cannot post new topics in this forum
You cannot reply to topics in this forum
You cannot edit your posts in this forum
You cannot delete your posts in this forum
You cannot vote in polls in this forum
You cannot attach files in this forum
You can download files in this forum