Тайны собора Санта-Мария-дель-Фьоре / Secrets of the Duomo (Дэвид Мердок / David Murdock) [2013, США, Документальный, архитектура, строительство, DVB] DVO (СВ-Дубль) + Sub (rus)

Reply to topic
DL-List and Torrent activity
Size:  1.01 GB   |    Registered:  4 months 10 days   |    Completed:  2 times

Seeder not seen: 43 minutes

 
   
 
 
Author Message

star21 ®

Gender: Female

Longevity: 3 years 9 months

Posts: 551989

Location: Екатеринбург

Post 12-Apr-2019 05:35

[Quote]

Тайны собора Санта-Мария-дель-Фьоре
Secrets of the Duomo
Год выпуска: 2013
Страна: США
Жанр: Документальный
Продолжительность: 00:51:41Перевод: Профессиональный (двухголосый закадровый) СВ-Дубль
Субтитры: русские, полныеРежиссер: Дэвид Мердок / David MurdockОписание: Купол собора Санта-Мария-дель-Фьоре – величайшее архитектурное творение всех времён, построенное шестьсот лет назад. Сложенный из четырёх миллионов кирпичей общим весом сорок тысяч тонн, этот купол – самый большой в мире.
Его автор Филиппо Брунеллески дерзнул создать невозможное. Приёмы, использованные им при строительстве, до сих пор остаются неразгаданными. Вопрос о том, как был построен купол, до сих пор не имеет ответа.
Каким образом каменщики ухитрялись работать на такой высоте? Как им удалось сложить восемь граней купола так, чтобы они сошлись в одной точке? И почему наклонная кирпичная кладка не рассыпалась?
Профессор Массимо Риччи, стремящийся раскрыть тайны собора, с помощью команды американских каменщиков проверит свою теорию на практике.Сэмпл: https://yadi.sk/i/9uWuCXbNS_vp6QКачество видео: DVB 576i
Формат видео: MKV
Видео кодек: H.264 / MPEG-4 AVC
Аудио кодек: MP2 / MPEG Audio
Видео: 720@1047x576 (16:9), 25 fps, ~2543 kbps, 0.245 bit/pixel
Аудио: 48 kHz, 2 channels (dual mono), ~192 kbps
Формат субтитров: softsub (SRT), вшиты в контейнер

MediaInfo

ОбщееУникальный идентификатор                 : 231990232319970241448212173469397069718 (0xAE87B18AB9D02ED39064990017CCAF96)Полное имя                               : C:\Torrent\Secrets of the Duomo.2013.SATRip-AVC.DVO(СВ-Дубль)\Secrets of the Duomo.2013.SATRip-AVC.DVO(СВ-Дубль).mkvФормат                                   : MatroskaВерсия формата                           : Version 4 / Version 2Размер файла                             : 1,00 ГбайтПродолжительность                        : 51 м.Общий поток                              : 2790 Кбит/секДата кодирования                         : UTC 2019-03-28 17:43:35Программа кодирования                    : mkvmerge v6.1.0 ('Old Devil') built on Mar  4 2013 09:10:42Библиотека кодирования                   : libebml v1.3.0 + libmatroska v1.4.0ВидеоИдентификатор                            : 1Формат                                   : AVCФормат/Информация                        : Advanced Video CodecПрофиль формата                          : Main@L3Параметр CABAC формата                   : ДаПараметр ReFrames формата                : 4 кадраПараметр GOP формата                     : M=4, N=28Идентификатор кодека                     : V_MPEG4/ISO/AVCПродолжительность                        : 51 м.Битрейт                                  : 2543 Кбит/секШирина                                   : 720 пикселейВысота                                   : 576 пикселейСоотношение сторон                       : 16:9Режим частоты кадров                     : ПостоянныйЧастота кадров                           : 25,000 кадров/секСтандарт вещания                         : ComponentЦветовое пространство                    : YUVСубдискретизация насыщенности            : 4:2:0Битовая глубина                          : 8 битТип развёртки                            : ЧересстрочнаяМетод сохранения типа развёртки          : Раздельные поляПорядок развёртки                        : Верхнее поле первоеБит/(Пиксели*Кадры)                      : 0.245Размер потока                            : 937 Мбайт (91%)Default                                  : ДаForced                                   : НетЦветовой диапазон                        : LimitedОсновные цвета                           : BT.601 PALХарактеристики трансфера                 : BT.470 System B, BT.470 System GКоэффициенты матрицы                     : BT.601АудиоИдентификатор                            : 2Формат                                   : MPEG AudioВерсия формата                           : Version 1Профиль формата                          : Layer 2Идентификатор кодека                     : A_MPEG/L2Идентификатор кодека/Подсказка           : MP2Продолжительность                        : 51 м.Вид битрейта                             : ПостоянныйБитрейт                                  : 192 Кбит/секКаналы                                   : 2 каналаЧастота                                  : 48,0 КГцМетод сжатия                             : С потерямиЗадержка видео                           : 100 мс.Размер потока                            : 70,7 Мбайт (7%)Заголовок                                : DVO (СВ-Дубль)Язык                                     : RussianDefault                                  : ДаForced                                   : НетТекстИдентификатор                            : 3Формат                                   : UTF-8Идентификатор кодека                     : S_TEXT/UTF8Идентификатор кодека/Информация          : UTF-8 Plain TextЗаголовок                                : Rus Sub (ВГТРК)Язык                                     : RussianDefault                                  : НетForced                                   : Нет

To download the content you need:
1. Download and install torrent client [for Windows] or for mobile system
2. Click on [Download]
Attention.
If the test YOU are NOT a ROBOT - does not work, then You are using an outdated browser.
Install the current browser and click on [Download]
Security: torrent client is allowed by Kaspersky.

[asmlocator.ru].t627787.torrent 
Torrent: Registered [ 2019-04-12 05:35 ] · 3D15DA0BEF86B44AE796B64C24C0766ACE30CD87

Download .torrent

Download

11 KB

Status: checked
Completed: 2 times
Size: 1.01 GB
terms.php
[Profile] [PM]
Display posts:    
Reply to topic

Current time is: 22-Aug 08:24

All times are UTC ± 0



You cannot post new topics in this forum
You cannot reply to topics in this forum
You cannot edit your posts in this forum
You cannot delete your posts in this forum
You cannot vote in polls in this forum
You cannot attach files in this forum
You can download files in this forum