(Roots Reggae) [CD] Justin Hinds & The Dominoes - Jezebel + Just In Time - 2004, FLAC (tracks+.cue), lossless

Reply to topic
DL-List and Torrent activity
Size:  418 MB   |    Registered:  13 days   |    Completed:  0 times

Seeder not seen: Never

 
   
 
 
Author Message

star21 ®

Gender: Female

Longevity: 3 years 5 months

Posts: 552370

Location: Екатеринбург

Post 11-Apr-2019 21:10

[Quote]

Justin Hinds & The Dominoes / Jezebel + Just In Time Жанр: Roots Reggae
Носитель: CD
Страна-производитель диска (релиза): Japan
Год издания: 2004
Издатель (лейбл): Island Records
Номер по каталогу: UICY-6853
Аудиокодек: FLAC (*.flac)
Тип рипа: tracks+.cue
Битрейт аудио: lossless
Продолжительность: 01:13:09
Источник: локальная сеть
Наличие сканов в содержимом раздачи: да
Треклист:
Jezebel 1976
1 Natty Take Over
2 Dip And Fall Back
3 Fire
4 Carry Go Bring Come
5 Prophecy
6 Babylon Children
7 What You Don't Know
8 Spotlight
9 Precious MorningJust In Time 1978
10 Let's Rock
11 Let Jah Arise
12 Help Your Falling Brother
13 Bad Minded People
14 What You Gonna Do
15 (On) Broadway
16 One Bird In The Hand
17 Groovin'
18 Positive Way
19 Stop The Rain

Лог создания рипа

Exact Audio Copy V0.99 prebeta 3 from 28. July 2007EAC extraction logfile from 18. May 2008, 19:45Justin Hines & The Dominoes / Jezebel + Just In TimeUsed drive  : SONY    DVD-ROM DDU1615   Adapter: 1  ID: 0Read mode               : SecureUtilize accurate stream : YesDefeat audio cache      : YesMake use of C2 pointers : NoRead offset correction                      : 6Overread into Lead-In and Lead-Out          : NoFill up missing offset samples with silence : YesDelete leading and trailing silent blocks   : NoNull samples used in CRC calculations       : YesUsed interface                              : Installed external ASPI interfaceGap handling                                : Appended to previous trackUsed output format              : User Defined EncoderSelected bitrate                : 1024 kBit/sQuality                         : HighAdd ID3 tag                     : NoCommand line compressor         : C:\Program Files\Exact Audio Copy\wapet.exeAdditional command line options : %d -t "Artist=%a" -t "Title=%t" -t "Album=%g" -t "Year=%y" -t "Track=%n" -t "Genre=%m" -t "Comment=--==<< Lossless Dub Team - dUbonic >>==--" "C:\Program Files\Monkey's Audio\MAC.exe" %s %d -c4000TOC of the extracted CD     Track |   Start  |  Length  | Start sector | End sector    ---------------------------------------------------------        1  |  0:00.00 |  5:06.12 |         0    |    22961        2  |  5:06.12 |  3:20.15 |     22962    |    37976        3  |  8:26.27 |  3:40.63 |     37977    |    54539        4  | 12:07.15 |  6:12.15 |     54540    |    82454        5  | 18:19.30 |  3:10.52 |     82455    |    96756        6  | 21:30.07 |  3:19.73 |     96757    |   111754        7  | 24:50.05 |  3:20.32 |    111755    |   126786        8  | 28:10.37 |  3:13.45 |    126787    |   141306        9  | 31:24.07 |  3:01.65 |    141307    |   154946       10  | 34:25.72 |  3:16.55 |    154947    |   169701       11  | 37:42.52 |  4:26.55 |    169702    |   189706       12  | 42:09.32 |  4:02.33 |    189707    |   207889       13  | 46:11.65 |  4:17.05 |    207890    |   227169       14  | 50:28.70 |  3:57.12 |    227170    |   244956       15  | 54:26.07 |  4:25.35 |    244957    |   264866       16  | 58:51.42 |  2:54.45 |    264867    |   277961       17  | 61:46.12 |  4:03.33 |    277962    |   296219       18  | 65:49.45 |  3:43.02 |    296220    |   312946       19  | 69:32.47 |  3:45.60 |    312947    |   329881Track  1     Filename F:\Awaiting Rips 2\Justin Hines & The Dominoes [Japan Reissue] (2004)\01 - Natty Take Over.wav     Pre-gap length  0:00:02.00     Peak level 97.8 %     Track quality 99.9 %     Test CRC F57085D8     Copy CRC F57085D8     Track not present in AccurateRip database     Copy OKTrack  2     Filename F:\Awaiting Rips 2\Justin Hines & The Dominoes [Japan Reissue] (2004)\02 - Dip And Fall Back.wav     Pre-gap length  0:00:04.00     Peak level 97.9 %     Track quality 100.0 %     Test CRC 359EAE4D     Copy CRC 359EAE4D     Track not present in AccurateRip database     Copy OKTrack  3     Filename F:\Awaiting Rips 2\Justin Hines & The Dominoes [Japan Reissue] (2004)\03 - Fire.wav     Pre-gap length  0:00:01.20     Peak level 98.3 %     Track quality 99.9 %     Test CRC 18925A6D     Copy CRC 18925A6D     Track not present in AccurateRip database     Copy OKTrack  4     Filename F:\Awaiting Rips 2\Justin Hines & The Dominoes [Japan Reissue] (2004)\04 - Carry Go Bring Come.wav     Pre-gap length  0:00:04.30     Peak level 98.0 %     Track quality 100.0 %     Test CRC 72CB69B7     Copy CRC 72CB69B7     Track not present in AccurateRip database     Copy OKTrack  5     Filename F:\Awaiting Rips 2\Justin Hines & The Dominoes [Japan Reissue] (2004)\05 - Prophecy.wav     Pre-gap length  0:00:03.28     Peak level 97.4 %     Track quality 100.0 %     Test CRC 6D981627     Copy CRC 6D981627     Track not present in AccurateRip database     Copy OKTrack  6     Filename F:\Awaiting Rips 2\Justin Hines & The Dominoes [Japan Reissue] (2004)\06 - Babylon Children.wav     Pre-gap length  0:00:03.67     Peak level 99.3 %     Track quality 100.0 %     Test CRC 20178997     Copy CRC 20178997     Track not present in AccurateRip database     Copy OKTrack  7     Filename F:\Awaiting Rips 2\Justin Hines & The Dominoes [Japan Reissue] (2004)\07 - What You Don't Know.wav     Pre-gap length  0:00:02.13     Peak level 97.9 %     Track quality 100.0 %     Test CRC 785A29EE     Copy CRC 785A29EE     Track not present in AccurateRip database     Copy OKTrack  8     Filename F:\Awaiting Rips 2\Justin Hines & The Dominoes [Japan Reissue] (2004)\08 - Spotlight.wav     Pre-gap length  0:00:06.37     Peak level 99.8 %     Track quality 99.9 %     Test CRC 3E5033A6     Copy CRC 3E5033A6     Track not present in AccurateRip database     Copy OKTrack  9     Filename F:\Awaiting Rips 2\Justin Hines & The Dominoes [Japan Reissue] (2004)\09 - Precious Morning.wav     Pre-gap length  0:00:05.27     Peak level 99.9 %     Track quality 100.0 %     Test CRC 4408194A     Copy CRC 4408194A     Track not present in AccurateRip database     Copy OKTrack 10     Filename F:\Awaiting Rips 2\Justin Hines & The Dominoes [Japan Reissue] (2004)\10 - Let's Rock.wav     Pre-gap length  0:00:05.22     Peak level 96.0 %     Track quality 100.0 %     Test CRC 0230F585     Copy CRC 0230F585     Track not present in AccurateRip database     Copy OKTrack 11     Filename F:\Awaiting Rips 2\Justin Hines & The Dominoes [Japan Reissue] (2004)\11 - Let Jah Arise.wav     Pre-gap length  0:00:04.72     Peak level 99.7 %     Track quality 100.0 %     Test CRC EB4D88B3     Copy CRC EB4D88B3     Track not present in AccurateRip database     Copy OKTrack 12     Filename F:\Awaiting Rips 2\Justin Hines & The Dominoes [Japan Reissue] (2004)\12 - Help Your Falling Brother.wav     Pre-gap length  0:00:07.47     Peak level 94.3 %     Track quality 100.0 %     Test CRC ED48EF9C     Copy CRC ED48EF9C     Track not present in AccurateRip database     Copy OKTrack 13     Filename F:\Awaiting Rips 2\Justin Hines & The Dominoes [Japan Reissue] (2004)\13 - Bad Minded People.wav     Pre-gap length  0:00:03.65     Peak level 98.8 %     Track quality 100.0 %     Test CRC CABA5A64     Copy CRC CABA5A64     Track not present in AccurateRip database     Copy OKTrack 14     Filename F:\Awaiting Rips 2\Justin Hines & The Dominoes [Japan Reissue] (2004)\14 - What You Gonna Do.wav     Pre-gap length  0:00:03.40     Peak level 91.3 %     Track quality 100.0 %     Test CRC C9616939     Copy CRC C9616939     Track not present in AccurateRip database     Copy OKTrack 15     Filename F:\Awaiting Rips 2\Justin Hines & The Dominoes [Japan Reissue] (2004)\15 - (On) Broadway.wav     Pre-gap length  0:00:04.22     Peak level 94.3 %     Track quality 100.0 %     Test CRC 97B918AD     Copy CRC 97B918AD     Track not present in AccurateRip database     Copy OKTrack 16     Filename F:\Awaiting Rips 2\Justin Hines & The Dominoes [Japan Reissue] (2004)\16 - One Bird In The Hand.wav     Pre-gap length  0:00:08.00     Peak level 95.4 %     Track quality 100.0 %     Test CRC 742E9647     Copy CRC 742E9647     Track not present in AccurateRip database     Copy OKTrack 17     Filename F:\Awaiting Rips 2\Justin Hines & The Dominoes [Japan Reissue] (2004)\17 - Groovin'.wav     Pre-gap length  0:00:05.07     Peak level 98.3 %     Track quality 100.0 %     Test CRC 6C0E761E     Copy CRC 6C0E761E     Track not present in AccurateRip database     Copy OKTrack 18     Filename F:\Awaiting Rips 2\Justin Hines & The Dominoes [Japan Reissue] (2004)\18 - Positive Way.wav     Pre-gap length  0:00:06.00     Peak level 99.9 %     Track quality 100.0 %     Test CRC F6D5027A     Copy CRC F6D5027A     Track not present in AccurateRip database     Copy OKTrack 19     Filename F:\Awaiting Rips 2\Justin Hines & The Dominoes [Japan Reissue] (2004)\19 - Stop The Rain.wav     Pre-gap length  0:00:04.62     Peak level 100.0 %     Track quality 99.9 %     Test CRC 63213164     Copy CRC 63213164     Track not present in AccurateRip database     Copy OKNone of the tracks are present in the AccurateRip databaseNo errors occurredEnd of status report

Содержание индексной карты (.CUE&#41;

REM GENRE ReggaeREM DATE 2004REM DISCID 0D112E13REM COMMENT "ExactAudioCopy v0.99pb3"PERFORMER "Justin Hines & The Dominoes"TITLE "Jezebel + Just In Time"FILE "01 - Natty Take Over.wav" WAVE  TRACK 01 AUDIO    TITLE "Natty Take Over"    PERFORMER "Justin Hines & The Dominoes"    INDEX 01 00:00:00  TRACK 02 AUDIO    TITLE "Dip And Fall Back"    PERFORMER "Justin Hines & The Dominoes"    INDEX 00 05:02:12FILE "02 - Dip And Fall Back.wav" WAVE    INDEX 01 00:00:00  TRACK 03 AUDIO    TITLE "Fire"    PERFORMER "Justin Hines & The Dominoes"    INDEX 00 03:18:70FILE "03 - Fire.wav" WAVE    INDEX 01 00:00:00  TRACK 04 AUDIO    TITLE "Carry Go Bring Come"    PERFORMER "Justin Hines & The Dominoes"    INDEX 00 03:36:33FILE "04 - Carry Go Bring Come.wav" WAVE    INDEX 01 00:00:00  TRACK 05 AUDIO    TITLE "Prophecy"    PERFORMER "Justin Hines & The Dominoes"    INDEX 00 06:08:62FILE "05 - Prophecy.wav" WAVE    INDEX 01 00:00:00  TRACK 06 AUDIO    TITLE "Babylon Children"    PERFORMER "Justin Hines & The Dominoes"    INDEX 00 03:06:60FILE "06 - Babylon Children.wav" WAVE    INDEX 01 00:00:00  TRACK 07 AUDIO    TITLE "What You Don't Know"    PERFORMER "Justin Hines & The Dominoes"    INDEX 00 03:17:60FILE "07 - What You Don't Know.wav" WAVE    INDEX 01 00:00:00  TRACK 08 AUDIO    TITLE "Spotlight"    PERFORMER "Justin Hines & The Dominoes"    INDEX 00 03:13:70FILE "08 - Spotlight.wav" WAVE    INDEX 01 00:00:00  TRACK 09 AUDIO    TITLE "Precious Morning"    PERFORMER "Justin Hines & The Dominoes"    INDEX 00 03:08:18FILE "09 - Precious Morning.wav" WAVE    INDEX 01 00:00:00  TRACK 10 AUDIO    TITLE "Let's Rock"    PERFORMER "Justin Hines & The Dominoes"    INDEX 00 02:56:43FILE "10 - Let's Rock.wav" WAVE    INDEX 01 00:00:00  TRACK 11 AUDIO    TITLE "Let Jah Arise"    PERFORMER "Justin Hines & The Dominoes"    INDEX 00 03:11:58FILE "11 - Let Jah Arise.wav" WAVE    INDEX 01 00:00:00  TRACK 12 AUDIO    TITLE "Help Your Falling Brother"    PERFORMER "Justin Hines & The Dominoes"    INDEX 00 04:19:08FILE "12 - Help Your Falling Brother.wav" WAVE    INDEX 01 00:00:00  TRACK 13 AUDIO    TITLE "Bad Minded People"    PERFORMER "Justin Hines & The Dominoes"    INDEX 00 03:58:43FILE "13 - Bad Minded People.wav" WAVE    INDEX 01 00:00:00  TRACK 14 AUDIO    TITLE "What You Gonna Do"    PERFORMER "Justin Hines & The Dominoes"    INDEX 00 04:13:40FILE "14 - What You Gonna Do.wav" WAVE    INDEX 01 00:00:00  TRACK 15 AUDIO    TITLE "(On) Broadway"    PERFORMER "Justin Hines & The Dominoes"    INDEX 00 03:52:65FILE "15 - (On) Broadway.wav" WAVE    INDEX 01 00:00:00  TRACK 16 AUDIO    TITLE "One Bird In The Hand"    PERFORMER "Justin Hines & The Dominoes"    INDEX 00 04:17:35FILE "16 - One Bird In The Hand.wav" WAVE    INDEX 01 00:00:00  TRACK 17 AUDIO    TITLE "Groovin'"    PERFORMER "Justin Hines & The Dominoes"    INDEX 00 02:49:38FILE "17 - Groovin'.wav" WAVE    INDEX 01 00:00:00  TRACK 18 AUDIO    TITLE "Positive Way"    PERFORMER "Justin Hines & The Dominoes"    INDEX 00 03:57:33FILE "18 - Positive Way.wav" WAVE    INDEX 01 00:00:00  TRACK 19 AUDIO    TITLE "Stop The Rain"    PERFORMER "Justin Hines & The Dominoes"    INDEX 00 03:38:15FILE "19 - Stop The Rain.wav" WAVE    INDEX 01 00:00:00

To download the content you need:
1. Download and install torrent client [for Windows] or for mobile system
2. Click on [Download]
Attention.
If the test YOU are NOT a ROBOT - does not work, then You are using an outdated browser.
Install the current browser and click on [Download]
Security: torrent client is allowed by Kaspersky.

[asmlocator.ru].t627780.torrent 
Torrent: Registered [ 2019-04-11 21:10 ] · 8FACFFCA434A9ABC1415CD78AC0966FC90C1C2EF

Download .torrent

Download

19 KB

Status: checked
Completed: 0 times
Size: 418 MB
terms.php
[Profile] [PM]
Display posts:    
Reply to topic

Current time is: 25-Apr 14:51

All times are UTC ± 0



You cannot post new topics in this forum
You cannot reply to topics in this forum
You cannot edit your posts in this forum
You cannot delete your posts in this forum
You cannot vote in polls in this forum
You cannot attach files in this forum
You can download files in this forum