[TR24][BL][FM] Trevor Rabin - Спасатель / The Guardian (Bootleg) - 2006 (Score, Soundtrack, Stage & Screen)

Reply to topic
DL-List and Torrent activity
Size:  869 MB   |    Registered:  4 months 12 days   |    Completed:  0 times

Seeder not seen: Never

 
   
 
 
Author Message

star21 ®

Gender: Female

Longevity: 3 years 9 months

Posts: 551989

Location: Екатеринбург

Post 11-Apr-2019 10:20

[Quote]

Trevor Rabin / The Guardian Формат записи/Источник записи: [TR24][BL]
Наличие водяных знаков: Нет
Издание: Bootleg
Год издания диска: 2006
Жанр: Score, Soundtrack, Stage & Screen
Продолжительность: 01:31:05
Наличие сканов в содержимом раздачи: Нет
Источник (релизер): скачал в ed2kКонтейнер: FLAC (*.flac)
Тип рипа: tracksРазрядность: 24/48
Формат: WAV (flac.ape.wv)
Количество каналов: 2.0Треклист:
01. TG_1m01_02 Opening_Randall Rescues Couple (6:01)
02. TG_1m03 Helen Leaves (1:22)
03. TG_1m03 Helen Leaves (alt) (1:21)
04. TG_2m04_05 Abandon Ship_Copter Crash (6:00)
05. TG_2m06 Billings Surfaces (1:21)
06. TG_2m07 Billings Dies (3:52)
07. TG_3m09 A_ School Introduction (3:55)
08. TG_3m10 Randall's Nightmare_FB#1 (0:49)
09. TG_3m11 Tread Water (2:08)
10. TG_3m12 Willing To Sacrafice (0:43)
11. TG_4m21 Hypothermic Pool Lessson (2:52)
12. TG_5m22 Flare Demo_FB#2 (0:43)
13. TG_5m23 Understand Your Limits (1:50)
14. TG_5m27 Pushing Blocks (1:30)
15. TG_5m28 Breath Record (1:25)
16. TG_6m33 Maggie & Randall Getting Old (0:54)
17. TG_6m33 Maggie & Randall Getting Old (no gtr) (alt) (0:52)
18. TG_6m34 Rude Awakening_FB#3 (0:31)
19. TG_6m35 Burning Boat Footage (1:13)
20. TG_6m35 Burning Boat Footage (alt) (1:16)
21. TG_6m36 Hodge Panics (1:32)
22. TG_6m40 Jake's Past (4:51)
23. TG_7m43 They're Not Coming Back (2:09)
24. TG_7m43a Skinner Bleeds (0:55)
25. TG_7m44 Graduation_Goodbye To Emily (3:28)
26. TG_8m45 Randall Back To Kodiak (1:52)
27. TG_8m46 Heading To Cave (2:54)
28. TG_8m47 FB#4_Log Strike_Rescue (4:53)
29. TG_8m48 Randall Resigns (3:20)
30. TG_8m49 Randall Goes Back To Helens (1:56)
31. TG_8m50 Randall Gives Helen Divorce Papers (1:36)
32. TG_9m51 Fishing Boat Rescue (5:30)
33. TG_9m52 Randall Returns To HQ (6:29)
34. TG_10m53_56 Randall Frees Jake (9:04)

Лог проверки качества

foobar2000 1.4.2 / Dynamic Range Meter 1.1.1log date: 2019-02-21 03:49:27--------------------------------------------------------------------------------Analyzed: Trevor Rabin / The Guardian (The Recording Sessions)--------------------------------------------------------------------------------DR         Peak         RMS     Duration Track--------------------------------------------------------------------------------DR12      -0.19 dB   -18.38 dB      6:01 1/34-TG_1m01_02 Opening_Randall Rescues CoupleDR10      -7.93 dB   -24.32 dB      1:22 2/34-TG_1m03 Helen LeavesDR10      -4.05 dB   -22.07 dB      1:21 3/34-TG_1m03 Helen Leaves (alt)DR14      -1.54 dB   -20.05 dB      6:00 4/34-TG_2m04_05 Abandon Ship_Copter CrashDR12       0.00 dB   -21.28 dB      1:21 5/34-TG_2m06 Billings SurfacesDR12      -4.00 dB   -23.87 dB      3:52 6/34-TG_2m07 Billings DiesDR11      -4.76 dB   -21.56 dB      3:55 7/34-TG_3m09 A_ School IntroductionDR9       -3.21 dB   -20.86 dB      0:49 8/34-TG_3m10 Randall's Nightmare_FB#1DR12      -2.92 dB   -19.59 dB      2:08 9/34-TG_3m11 Tread WaterDR10     -12.93 dB   -29.81 dB      0:43 10/34-TG_3m12 Willing To SacraficeDR16      -3.77 dB   -28.41 dB      2:52 11/34-TG_4m21 Hypothermic Pool LesssonDR8       -6.03 dB   -21.12 dB      0:43 12/34-TG_5m22 Flare Demo_FB#2DR10      -3.52 dB   -20.13 dB      1:50 13/34-TG_5m23 Understand Your LimitsDR10      -8.33 dB   -23.63 dB      1:30 14/34-TG_5m27 Pushing BlocksDR11      -4.55 dB   -21.27 dB      1:25 15/34-TG_5m28 Breath RecordDR9      -17.03 dB   -31.99 dB      0:54 16/34-TG_6m33 Maggie & Randall Getting OldDR9      -16.46 dB   -32.33 dB      0:52 17/34-TG_6m33 Maggie & Randall Getting Old (no gtr) (alt)DR8       -5.32 dB   -19.56 dB      0:31 18/34-TG_6m34 Rude Awakening_FB#3DR10     -11.53 dB   -26.54 dB      1:13 19/34-TG_6m35 Burning Boat FootageDR9       -7.04 dB   -22.42 dB      1:16 20/34-TG_6m35 Burning Boat Footage (alt)DR10      -3.96 dB   -18.76 dB      1:32 21/34-TG_6m36 Hodge PanicsDR12      -6.91 dB   -25.37 dB      4:51 22/34-TG_6m40 Jake's PastDR10      -0.22 dB   -16.89 dB      2:09 23/34-TG_7m43 They're Not Coming BackDR9      -12.63 dB   -30.38 dB      0:55 24/34-TG_7m43a Skinner BleedsDR13      -3.78 dB   -25.77 dB      3:28 25/34-TG_7m44 Graduation_Goodbye To EmilyDR10     -11.56 dB   -27.78 dB      1:52 26/34-TG_8m45 Randall Back To KodiakDR11      -0.11 dB   -15.52 dB      2:54 27/34-TG_8m46 Heading To CaveDR13       0.00 dB   -18.50 dB      4:53 28/34-TG_8m47 FB#4_Log Strike_RescueDR11     -14.60 dB   -31.11 dB      3:20 29/34-TG_8m48 Randall ResignsDR12     -15.60 dB   -33.82 dB      1:56 30/34-TG_8m49 Randall Goes Back To HelensDR10     -12.41 dB   -29.68 dB      1:36 31/34-TG_8m50 Randall Gives Helen Divorce PapersDR12      -0.26 dB   -17.15 dB      5:30 32/34-TG_9m51 Fishing Boat RescueDR13       0.00 dB   -16.48 dB      6:29 33/34-TG_9m52 Randall Returns To HQDR13       0.00 dB   -18.88 dB      9:04 34/34-TG_10m53_56 Randall Frees Jake--------------------------------------------------------------------------------Number of tracks:  34Official DR value: DR11Samplerate:        48000 HzChannels:          2Bits per sample:   24Bitrate:           1428 kbpsCodec:             FLAC================================================================================

Скриншот спектра частот

01. TG_1m01_02 Opening_Randall Rescues Couple:
11. TG_4m21 Hypothermic Pool Lessson:
34. TG_10m53_56 Randall Frees Jake:

To download the content you need:
1. Download and install torrent client [for Windows] or for mobile system
2. Click on [Download]
Attention.
If the test YOU are NOT a ROBOT - does not work, then You are using an outdated browser.
Install the current browser and click on [Download]
Security: torrent client is allowed by Kaspersky.

[asmlocator.ru].t627540.torrent 
Torrent: Registered [ 2019-04-11 10:20 ] · 4E0FFAF0D19705585BCF96BBAFFF2C47B3A2A6CD

Download .torrent

Download

20 KB

Status: checked
Completed: 0 times
Size: 869 MB
terms.php
[Profile] [PM]
Display posts:    
Reply to topic

Current time is: 23-Aug 16:45

All times are UTC ± 0



You cannot post new topics in this forum
You cannot reply to topics in this forum
You cannot edit your posts in this forum
You cannot delete your posts in this forum
You cannot vote in polls in this forum
You cannot attach files in this forum
You can download files in this forum