(Black Metal) [CD] Goliard - Artissimae Tenebrae - 2004, FLAC (image+.cue), lossless

Reply to topic
DL-List and Torrent activity
Size:  284 MB   |    Registered:  15 days   |    Completed:  0 times

Seeder not seen: Never

 
   
 
 
Author Message

star21 ®

Gender: Female

Longevity: 3 years 5 months

Posts: 552370

Location: Екатеринбург

Post 09-Apr-2019 15:40

[Quote]

Goliard - 2004 - Artissimae Tenebrae Жанр: Black Metal
Носитель: CD
Страна-производитель диска (релиза): Украина
Год издания: 2004
Издатель (лейбл): Griffin Music
Номер по каталогу: griffin 003
Страна исполнителя (группы): Украина
Аудиокодек: FLAC (*.flac)
Тип рипа: image+.cue
Битрейт аудио: lossless
Продолжительность: 35:27
Источник: собственный рип
Наличие сканов в содержимом раздачи: даТреклист:
1. Intro: Gloaming Shadows and Night Realm 02:50
2. Eternal Gloom Reigning 03:13
3. The Chill of Approaching Dawn 03:51
4. Artissimae Tenebrae 05:43
5. I Am the Black Wizards (Emperor cover) 05:43
6. Outro: Among Ancient Forestslopes 04:17
7. Dancing in a Roaring Wind 04:08
8. Memory About Brave 05:38

Лог создания рипа

Exact Audio Copy V1.0 beta 4 from 7. December 2014Отчёт EAC об извлечении, выполненном 14. марта 2019, 22:51Goliard / Artissimae TenebraeДисковод: PIONEER BD-RW   BDR-207D   Adapter: 1  ID: 0Режим чтения                 : ДостоверностьИспользование точного потока : ДаОтключение кэша аудио        : ДаИспользование указателей C2  : НетКоррекция смещения при чтении                     : 667Способность читать области Lead-in и Lead-out     : НетЗаполнение пропущенных сэмплов тишиной            : ДаУдаление блоков с тишиной в начале и конце        : НетПри вычислениях CRC использовались нулевые сэмплы : ДаИнтерфейс                                         : Встроенный Win32-интерфейс для Win NT/2000Выходной формат          : Пользовательский кодировщикВыбранный битрейт        : 1024 kBit/sКачество                 : ВысокийДобавление ID3-тега      : НетУтилита сжатия           : C:\Program Files (x86)\Exact Audio Copy\Flac\flac.exeДополнительные параметры : -V -8 -T "Date=%year%" -T "Genre=%genre%" %source%TOC извлечённого CD     Трек |   Старт  | Длительность | Начальный сектор | Конечный сектор    ---------------------------------------------------------------------       1  |  0:00.00 |    2:50.13   |           0      |      12762       2  |  2:50.13 |    3:13.26   |       12763      |      27263       3  |  6:03.39 |    3:51.39   |       27264      |      44627       4  |  9:55.03 |    5:43.58   |       44628      |      70410       5  | 15:38.61 |    5:43.14   |       70411      |      96149       6  | 21:22.00 |    4:17.35   |       96150      |     115459       7  | 25:39.35 |    4:08.09   |      115460      |     134068       8  | 29:47.44 |    5:38.70   |      134069      |     159488Характеристики диапазона извлечения и сообщения об ошибкахВыбранный диапазон     Имя файла F:\BFM\Goliard - Artissimae Tenebrae\Goliard - Artissimae Tenebrae.wav     Пиковый уровень 100.0 %     Скорость извлечения 6.4 X     Качество диапазона 100.0 %     CRC теста 1192D067     CRC копии 1192D067     Копирование... OKОшибок не произошлоAccurateRip: сводкаТрек  1  : извлечено точно (доверие 2)  [0A855813]  (AR v1)Трек  2  : извлечено точно (доверие 2)  [C097DC69]  (AR v1)Трек  3  : извлечено точно (доверие 2)  [BC98457F]  (AR v1)Трек  4  : извлечено точно (доверие 2)  [43598635]  (AR v1)Трек  5  : извлечено точно (доверие 2)  [D5BBD26F]  (AR v1)Трек  6  : извлечено точно (доверие 2)  [D0BA572A]  (AR v1)Трек  7  : извлечено точно (доверие 2)  [B24F1537]  (AR v1)Трек  8  : извлечено точно (доверие 2)  [9F221B84]  (AR v1)Все треки извлечены точноКонец отчёта==== Контрольная сумма отчёта EBD5DCD278299E8CDF6A1BA8F813845580540E3A032CF77A2146B72D5B27631F ====

Состав

Oleksandr Kostko - Bass
Dmytro Maykovich - Vocals
Oleksandr Denysenko - Guitars, Keyboards, Drum programming

To download the content you need:
1. Download and install torrent client [for Windows] or for mobile system
2. Click on [Download]
Attention.
If the test YOU are NOT a ROBOT - does not work, then You are using an outdated browser.
Install the current browser and click on [Download]
Security: torrent client is allowed by Kaspersky.

[asmlocator.ru].t627024.torrent 
Torrent: Registered [ 2019-04-09 15:40 ] · 82A4C4129CF710326BFB385CEFC2A1832E76EDEF

Download .torrent

Download

12 KB

Status: checked
Completed: 0 times
Size: 284 MB
terms.php
[Profile] [PM]
Display posts:    
Reply to topic

Current time is: 25-Apr 14:54

All times are UTC ± 0



You cannot post new topics in this forum
You cannot reply to topics in this forum
You cannot edit your posts in this forum
You cannot delete your posts in this forum
You cannot vote in polls in this forum
You cannot attach files in this forum
You can download files in this forum