(Thrash Metal) [CD] Darkness - First Class Violence - 2018 (2019), FLAC (image+.cue), lossless

Reply to topic
DL-List and Torrent activity
Size:  309 MB   |    Registered:  3 months 8 days   |    Completed:  1 time

Seeder not seen: 38 minutes

 
   
 
 
Author Message

star21 ®

Gender: Female

Longevity: 3 years 8 months

Posts: 552042

Location: Екатеринбург

Post 09-Apr-2019 09:10

[Quote]

Darkness - First Class Violence Жанр: Thrash Metal
Носитель: CD
Страна-производитель диска (релиза): Россия
Год издания: 2018 (2019)
Издатель (лейбл): Massacre / FONO LTD.
Номер по каталогу: FO1423CD
Страна исполнителя (группы): Germany
Аудиокодек: FLAC (*.flac)
Тип рипа: image+.cue
Битрейт аудио: lossless
Продолжительность: 40:51
Источник: собственный рип
Наличие сканов в содержимом раздачи: нетТреклист:01. Prelude In E (01:12)
02. Low Velocity Blood Spatter (04:11)
03. Neoprimitive (04:33)
04. Hate Is My Engine (04:04)
05. See You On The Bodyfarm (03:56)
06. Zeutan (03:07)
07. The Autocrazy (Autocracy) Club (04:42)
08. Born Dead (04:44)
09. First Class Violence (04:22)
10. I Betray (05:56)

Лог создания рипа

Exact Audio Copy V1.3 from 2. September 2016EAC extraction logfile from 6. March 2019, 19:17Darkness / First Class ViolenceUsed drive  : Optiarc DVD RW AD-7200A   Adapter: 1  ID: 0Read mode               : SecureUtilize accurate stream : YesDefeat audio cache      : YesMake use of C2 pointers : NoRead offset correction                      : 48Overread into Lead-In and Lead-Out          : NoFill up missing offset samples with silence : YesDelete leading and trailing silent blocks   : NoNull samples used in CRC calculations       : YesUsed interface                              : Native Win32 interface for Win NT & 2000Used output format              : User Defined EncoderSelected bitrate                : 1024 kBit/sQuality                         : HighAdd ID3 tag                     : NoCommand line compressor         : D:\Прoграммы\Exact Audio Copy (V1.3)\Flac\flac.exeAdditional command line options : -V -8 -T "Date=%year%" -T "Genre=%genre%" %source%TOC of the extracted CD     Track |   Start  |  Length  | Start sector | End sector    ---------------------------------------------------------        1  |  0:00.00 |  1:12.53 |         0    |     5452        2  |  1:12.53 |  4:11.49 |      5453    |    24326        3  |  5:24.27 |  4:33.54 |     24327    |    44855        4  |  9:58.06 |  4:04.36 |     44856    |    63191        5  | 14:02.42 |  3:56.63 |     63192    |    80954        6  | 17:59.30 |  3:07.00 |     80955    |    94979        7  | 21:06.30 |  4:42.49 |     94980    |   116178        8  | 25:49.04 |  4:44.35 |    116179    |   137513        9  | 30:33.39 |  4:22.26 |    137514    |   157189       10  | 34:55.65 |  5:56.69 |    157190    |   183958Range status and errorsSelected range     Filename D:\Torrent\Darkness - First Class Violence.wav     Peak level 96.4 %     Extraction speed 3.8 X     Range quality 99.9 %     Test CRC E2508351     Copy CRC E2508351     Copy OKNo errors occurredAccurateRip summaryTrack  1  cannot be verified as accurate (confidence 2)  [0ECE0C06], AccurateRip returned [D01C3CFF]  (AR v2)Track  2  cannot be verified as accurate (confidence 2)  [F2899279], AccurateRip returned [AD02C65A]  (AR v2)Track  3  cannot be verified as accurate (confidence 2)  [DAC45E15], AccurateRip returned [16C62C7E]  (AR v2)Track  4  cannot be verified as accurate (confidence 2)  [FC87B918], AccurateRip returned [8CD9FB1E]  (AR v2)Track  5  cannot be verified as accurate (confidence 2)  [988C3915], AccurateRip returned [C2CE3882]  (AR v2)Track  6  cannot be verified as accurate (confidence 2)  [9E4B1A7E], AccurateRip returned [98EAD195]  (AR v2)Track  7  cannot be verified as accurate (confidence 2)  [330D27DF], AccurateRip returned [B00A2D54]  (AR v2)Track  8  cannot be verified as accurate (confidence 2)  [1631091B], AccurateRip returned [2EA7B713]  (AR v2)Track  9  cannot be verified as accurate (confidence 2)  [E4DEEE97], AccurateRip returned [8F04D47B]  (AR v2)Track 10  cannot be verified as accurate (confidence 2)  [06AD5F32], AccurateRip returned [B2106D11]  (AR v2)No tracks could be verified as accurateYou may have a different pressing from the one(s) in the databaseEnd of status report---- CUETools DB Plugin V2.1.6[CTDB TOCID: MBA8yJp3AbDjOcWj6gkVFciewMk-] foundSubmit result:Track | CTDB Status  1   | (10/10) Differs in 12 samples @01:12:52  2   | (10/10) Differs in 11 samples @04:11:48  3   | (10/10) Differs in 11 samples @04:33:53  4   | (10/10) Differs in 12 samples @04:04:35  5   | (10/10) Differs in 11 samples @03:56:62  6   | (10/10) Differs in 12 samples @03:06:74  7   | (10/10) Differs in 12 samples @04:42:48  8   | (10/10) Differs in 12 samples @04:44:34  9   | (10/10) Differs in 10 samples @04:22:25 10   | (10/10) Accurately rippedIf you are sure that your rip contains errors, you can use CUETools to repair it.==== Log checksum BF82263AE1BF92D566F07E954855B35D5FAE032FE695C0F61352B43A7A35A6DC ====

To download the content you need:
1. Download and install torrent client [for Windows] or for mobile system
2. Click on [Download]
Attention.
If the test YOU are NOT a ROBOT - does not work, then You are using an outdated browser.
Install the current browser and click on [Download]
Security: torrent client is allowed by Kaspersky.

[asmlocator.ru].t626854.torrent 
Torrent: Registered [ 2019-04-09 09:10 ] · AECE83CA664E8416023CF4F279F9D35CC2A85D48

Download .torrent

Download

13 KB

Status: checked
Completed: 1 times
Size: 309 MB
terms.php
[Profile] [PM]
Display posts:    
Reply to topic

Current time is: 18-Jul 05:43

All times are UTC ± 0



You cannot post new topics in this forum
You cannot reply to topics in this forum
You cannot edit your posts in this forum
You cannot delete your posts in this forum
You cannot vote in polls in this forum
You cannot attach files in this forum
You can download files in this forum