Joni Mitchell • Both Sides Now: Live At The Isle Of Wight Festival 1970 [2018, Folk, Jazz, Documentary, BDRip, 1080p]

Reply to topic
DL-List and Torrent activity
Size:  5.46 GB   |    Registered:  17 days   |    Completed:  1 time

Seeder not seen: 21 minute

 
   
 
 
Author Message

star21 ®

Gender: Female

Longevity: 3 years 5 months

Posts: 552370

Location: Екатеринбург

Post 08-Apr-2019 02:55

[Quote]

Joni Mitchell
Both Sides Now:
Live At The Isle Of Wight Festival 1970Жанр: Folk, Jazz, Documentary
Продолжительность: 01:16:20
Год выпуска: September 14, 2018
Лейбл: Eagle Vision
ASIN: B07DY2C3XW1 That Song About The Midway
2 Chelsea Morning
3 For Free
4 Woodstock
5 My Old Man
6 California
7 Big Yellow Taxi
8 Both Sides Now
9 Gallery
10 Hunter
11 A Case Of You
Качество: BDRip
Разрешение видео/развертка: 1080p
Контейнер: MKV
Видео кодек: H.264
Аудио кодек: DTS
Видео: MPEG4 Video (H264) 1920x1080 29.97fps 8 735 kb/s
Аудио: DTS 48000Hz 6ch 1509 kb/s

Отчёт MediaInfo / BDInfo

GeneralUnique ID                      : 146215294709264902752781576764149068036 (0x6E000A9BDD373573730F941F3D4DF104)Complete name                  : E:\Joni Mitchell - Both Sides Now - Live At The Isle Of Wight Festival 1970.mkvFormat                         : MatroskaFormat version                 : Version 4File size                      : 5.46 GiBDuration                       : 1 h 16 minOverall bit rate               : 10.2 Mb/sEncoded date                   : UTC 2018-09-17 17:13:38Writing application            : mkvmerge v26.0.0 ('In The Game') 64-bitWriting library                : libebml v1.3.6 + libmatroska v1.4.9VideoID                             : 1Format                         : AVCFormat/Info                    : Advanced Video CodecFormat profile                 : High@L4.1Format settings                : CABAC / 4 Ref FramesFormat settings, CABAC         : YesFormat settings, ReFrames      : 4 framesCodec ID                       : V_MPEG4/ISO/AVCDuration                       : 1 h 16 minBit rate                       : 8 735 kb/sWidth                          : 1 920 pixelsHeight                         : 1 080 pixelsDisplay aspect ratio           : 16:9Frame rate mode                : ConstantFrame rate                     : 29.970 (30000/1001) FPSColor space                    : YUVChroma subsampling             : 4:2:0Bit depth                      : 8 bitsScan type                      : ProgressiveBits/(Pixel*Frame)             : 0.141Stream size                    : 4.66 GiB (85%)Title                          : EnglishWriting library                : x264 core 155 r2901 7d0ff22Encoding settings              : cabac=1 / ref=4 / deblock=1:0:0 / analyse=0x3:0x113 / me=umh / subme=8 / psy=1 / psy_rd=1.00:0.00 / mixed_ref=1 / me_range=16 / chroma_me=1 / trellis=1 / 8x8dct=1 / cqm=0 / deadzone=21,11 / fast_pskip=1 / chroma_qp_offset=-2 / threads=12 / lookahead_threads=2 / sliced_threads=0 / nr=0 / decimate=1 / interlaced=0 / bluray_compat=0 / constrained_intra=0 / bframes=3 / b_pyramid=2 / b_adapt=1 / b_bias=0 / direct=3 / weightb=1 / open_gop=0 / weightp=2 / keyint=240 / keyint_min=24 / scenecut=40 / intra_refresh=0 / rc_lookahead=50 / rc=2pass / mbtree=1 / bitrate=8735 / ratetol=1.0 / qcomp=0.60 / qpmin=0 / qpmax=69 / qpstep=4 / cplxblur=20.0 / qblur=0.5 / ip_ratio=1.40 / aq=1:1.00Language                       : EnglishDefault                        : YesForced                         : NoAudioID                             : 2Format                         : DTSFormat/Info                    : Digital Theater SystemsCodec ID                       : A_DTSDuration                       : 1 h 16 minBit rate mode                  : ConstantBit rate                       : 1 509 kb/sChannel(s)                     : 6 channelsChannel layout                 : C L R Ls Rs LFESampling rate                  : 48.0 kHzFrame rate                     : 93.750 FPS (512 SPF)Bit depth                      : 24 bitsCompression mode               : LossyStream size                    : 824 MiB (15%)Title                          : EnglishLanguage                       : EnglishDefault                        : YesForced                         : NoMenu00:00:00.000                   : :00:00:00.00000:02:05.993                   : :00:02:05.99300:07:16.469                   : :00:07:16.46900:13:02.081                   : :00:13:02.08100:15:12.979                   : :00:15:12.97900:15:52.652                   : :00:15:52.65200:21:19.011                   : :00:21:19.01100:23:14.994                   : :00:23:14.99400:28:53.865                   : :00:28:53.86500:39:25.964                   : :00:39:25.96400:44:00.304                   : :00:44:00.30400:48:10.888                   : :00:48:10.88800:53:00.010                   : :00:53:00.01000:56:44.167                   : :00:56:44.16701:00:10.040                   : :01:00:10.04001:02:01.084                   : :01:02:01.08401:07:06.222                   : :01:07:06.22201:08:57.934                   : :01:08:57.93401:12:03.319                   : :01:12:03.319

To download the content you need:
1. Download and install torrent client [for Windows] or for mobile system
2. Click on [Download]
Attention.
If the test YOU are NOT a ROBOT - does not work, then You are using an outdated browser.
Install the current browser and click on [Download]
Security: torrent client is allowed by Kaspersky.

[asmlocator.ru].t626175.torrent 
Torrent: Registered [ 2019-04-08 02:55 ] · A7B4267874E4EAF6B3C492D6E562B25DB6458029

Download .torrent

Download

14 KB

Status: checked
Completed: 1 times
Size: 5.46 GB
terms.php
[Profile] [PM]
Display posts:    
Reply to topic

Current time is: 25-Apr 14:56

All times are UTC ± 0



You cannot post new topics in this forum
You cannot reply to topics in this forum
You cannot edit your posts in this forum
You cannot delete your posts in this forum
You cannot vote in polls in this forum
You cannot attach files in this forum
You can download files in this forum