[DTSCD][UP] Dance With The Dead - Loved to Death - 2018 (Electronic, Retrowave, Synthwave)

Reply to topic
DL-List and Torrent activity
Size:  437 MB   |    Registered:  17 days   |    Completed:  0 times

Seeder not seen: Never

 
   
 
 
Author Message

star21 ®

Gender: Female

Longevity: 3 years 5 months

Posts: 552370

Location: Екатеринбург

Post 08-Apr-2019 00:45

[Quote]

Dance With The Dead - Loved to Death DTS UPMix Формат записи/Источник записи: [DTSCD][UP]
Наличие водяных знаков: Нет
Год издания/переиздания диска: 2018
Жанр: Electronic, Retrowave, Synthwave
Издатель (лейбл): Not On Label (Dance With The Dead Self-Released)
Продолжительность: 00:43:17
Наличие сканов в содержимом раздачи: Только обложка альбомаТреклист:
01. Go! (03:12)
02. Into the Shadows (feat. Nick Hipa) (04:45)
03. Salem (03:48)
04. Portraits (04:56)
05. War (04:56)
06. Red Moon (feat. Elliot Sloan) (04:17)
07. Creep (feat. Nick Hipa) (04:43)
08. From Hell (03:53)
09. Oracle (05:09)
10. Become Wrath (03:33)Контейнер: WAV(*.wav)
Тип рипа: tracksРазрядность: 16/44,1
Формат: DTS
Количество каналов: 5.1
Битрейт аудио: 1411 kbps

DR-лог

foobar2000 1.4.2 / Dynamic Range Meter 1.1.1log date: 2019-03-23 23:38:12--------------------------------------------------------------------------------Analyzed: ? / ?--------------------------------------------------------------------------------DR         Peak         RMS     Duration Track--------------------------------------------------------------------------------DR9       -3.27 dB   -13.74 dB      3:12 ?-01 Dance With The Dead - Go! DTSDR10      -2.85 dB   -13.67 dB      4:45 ?-02 Dance With The Dead - Into the Shadows DTSDR9       -2.13 dB   -13.71 dB      3:49 ?-03 Dance With The Dead - Salem DTSDR9       -3.14 dB   -13.70 dB      4:56 ?-04 Dance With The Dead - Portraits DTSDR9       -1.35 dB   -13.67 dB      4:57 ?-05 Dance With The Dead - War DTSDR9       -3.11 dB   -13.69 dB      4:17 ?-06 Dance With The Dead - Red Moon DTSDR10      -1.92 dB   -13.84 dB      4:43 ?-07 Dance With The Dead - Creep DTSDR10      -2.38 dB   -13.70 dB      3:54 ?-08 Dance With The Dead - From Hell DTSDR9       -3.01 dB   -13.72 dB      5:10 ?-09 Dance With The Dead - Oracle DTSDR9       -2.83 dB   -13.67 dB      3:33 ?-10 Dance With The Dead - Become Wrath DTS--------------------------------------------------------------------------------Number of tracks:  10Official DR value: DR9Samplerate:        44100 HzChannels:          6Bits per sample:   16Bitrate:           1411 kbpsCodec:             DTS================================================================================
Источник (релизер): WEB-релиз
Доп. информация: DJ S.A.W. DTS Upmix
Метод получения апмикса:
ручное выделение фазо-частотных фрагментов фонограммы с помощью функции CCE Adobe Audition
мультиканальный мастеринг – Аdobe Audition (встроенными эффектами и плагинами Waves, iZotope,
Starplugs и т.п.)

To download the content you need:
1. Download and install torrent client [for Windows] or for mobile system
2. Click on [Download]
Attention.
If the test YOU are NOT a ROBOT - does not work, then You are using an outdated browser.
Install the current browser and click on [Download]
Security: torrent client is allowed by Kaspersky.

[asmlocator.ru].t626129.torrent 
Torrent: Registered [ 2019-04-08 00:45 ] · CC890B2254177E740BCBE3312F53E384776F1754

Download .torrent

Download

18 KB

Status: checked
Completed: 0 times
Size: 437 MB
terms.php
[Profile] [PM]
Display posts:    
Reply to topic

Current time is: 25-Apr 14:52

All times are UTC ± 0



You cannot post new topics in this forum
You cannot reply to topics in this forum
You cannot edit your posts in this forum
You cannot delete your posts in this forum
You cannot vote in polls in this forum
You cannot attach files in this forum
You can download files in this forum