(Neo-Classical) [CD] Mifious (Яков Босых) - Phantasmagoria (2CD) - 2016, FLAC (tracks+.cue), lossless

Reply to topic
DL-List and Torrent activity
Size:  667 MB   |    Registered:  18 days   |    Completed:  0 times

Seeder not seen: Never

 
   
 
 
Author Message

star21 ®

Gender: Female

Longevity: 3 years 5 months

Posts: 552370

Location: Екатеринбург

Post 07-Apr-2019 14:20

[Quote]

Mifious (Яков Босых) / Phantasmagoria (2CD) Жанр: Neo-Classical
Носитель: CD
Страна-производитель диска (релиза): Russia
Год издания: 2016
Издатель (лейбл): Metal Renaissance
Номер по каталогу: MR 16-19
Аудиокодек: FLAC (*.flac)
Тип рипа: tracks+.cue
Битрейт аудио: lossless
Продолжительность: 0:50:37. + 1:04:44.
Источник: собственный рип
Наличие сканов в содержимом раздачи: да

CD1

01. Eden [0:03:51.59]
02. Apocalypsis [0:07:44.72]
03. The Abyss [0:06:07.32]
04. Gothica [0:03:23.74]
05. Проклятые [0:04:18.09]
06. Ave, Verum [0:02:42.44]
07. Пробуждение (Black Metal Version) [0:04:00.58]
08. Той, Которой Здесь Нет... [0:05:23.59]
09. Oratio Nocturna [0:06:24.30]
10. Ave [0:02:42.20]
11. Пробуждение [0:03:57.04]

Лог создания рипа

Exact Audio Copy V1.3 from 2. September 2016Отчёт EAC об извлечении, выполненном 28. марта 2019, 21:41Mifious / Phantasmagoria - 1CDДисковод: ASUS    DRW-1814BLT   Adapter: 1  ID: 0Режим чтения                 : ДостоверностьИспользование точного потока : ДаОтключение кэша аудио        : ДаИспользование указателей C2  : НетКоррекция смещения при чтении                     : 6Способность читать области Lead-in и Lead-out     : НетЗаполнение пропущенных сэмплов тишиной            : ДаУдаление блоков с тишиной в начале и конце        : НетПри вычислениях CRC использовались нулевые сэмплы : ДаИнтерфейс                                         : Встроенный Win32-интерфейс для Win NT/2000Обработка зазоров                                 : Добавлено к предыдущему трекуВыходной формат          : Пользовательский кодировщикВыбранный битрейт        : 128 kBit/sКачество                 : ВысокийДобавление ID3-тега      : НетУтилита сжатия           : C:\Program Files (x86)\Exact Audio Copy\Flac\flac.exeДополнительные параметры : -V -8 -T "Genre=%genre%" -T "Artist=%artist%" -T "Title=%title%" -T "Album=%albumtitle%" -T "Date=%year%" -T "Tracknumber=%tracknr%" -T "Comment=EAC1.0b2 FLAC -8" %source%TOC извлечённого CD     Трек |   Старт  | Длительность | Начальный сектор | Конечный сектор    ---------------------------------------------------------------------       1  |  0:00.00 |    3:51.59   |           0      |      17383       2  |  3:51.59 |    7:44.72   |       17384      |      52255       3  | 11:36.56 |    6:07.32   |       52256      |      79812       4  | 17:44.13 |    3:23.74   |       79813      |      95111       5  | 21:08.12 |    4:18.09   |       95112      |     114470       6  | 25:26.21 |    2:42.44   |      114471      |     126664       7  | 28:08.65 |    4:00.58   |      126665      |     144722       8  | 32:09.48 |    5:23.59   |      144723      |     169006       9  | 37:33.32 |    6:24.30   |      169007      |     197836      10  | 43:57.62 |    2:42.20   |      197837      |     210006      11  | 46:40.07 |    3:57.04   |      210007      |     227785Трек  1     Имя файла R:\Раздача 82\Mifious - 2016 - Phantasmagoria (2CD)\CD1\01 Eden.wav     Длина предзазора  0:00:02.00     Пиковый уровень 51.6 %     Скорость извлечения 2.9 X     Качество трека 100.0 %     CRC теста F7064D9D     CRC копии F7064D9D     Трек не обнаружен в базе AccurateRip     Копирование... OKТрек  2     Имя файла R:\Раздача 82\Mifious - 2016 - Phantasmagoria (2CD)\CD1\02 Apocalypsis.wav     Пиковый уровень 96.6 %     Скорость извлечения 3.5 X     Качество трека 100.0 %     CRC теста 2220B27F     CRC копии 2220B27F     Трек не обнаружен в базе AccurateRip     Копирование... OKТрек  3     Имя файла R:\Раздача 82\Mifious - 2016 - Phantasmagoria (2CD)\CD1\03 The Abyss.wav     Пиковый уровень 100.0 %     Скорость извлечения 3.8 X     Качество трека 100.0 %     CRC теста 76B3A84E     CRC копии 76B3A84E     Трек не обнаружен в базе AccurateRip     Копирование... OKТрек  4     Имя файла R:\Раздача 82\Mifious - 2016 - Phantasmagoria (2CD)\CD1\04 Gothica.wav     Пиковый уровень 67.9 %     Скорость извлечения 3.8 X     Качество трека 100.0 %     CRC теста 28C489D0     CRC копии 28C489D0     Трек не обнаружен в базе AccurateRip     Копирование... OKТрек  5     Имя файла R:\Раздача 82\Mifious - 2016 - Phantasmagoria (2CD)\CD1\05 Проклятые.wav     Пиковый уровень 100.0 %     Скорость извлечения 4.1 X     Качество трека 100.0 %     CRC теста 87E9B55D     CRC копии 87E9B55D     Трек не обнаружен в базе AccurateRip     Копирование... OKТрек  6     Имя файла R:\Раздача 82\Mifious - 2016 - Phantasmagoria (2CD)\CD1\06 Ave, Verum.wav     Пиковый уровень 48.8 %     Скорость извлечения 3.9 X     Качество трека 100.0 %     CRC теста 777376CB     CRC копии 777376CB     Трек не обнаружен в базе AccurateRip     Копирование... OKТрек  7     Имя файла R:\Раздача 82\Mifious - 2016 - Phantasmagoria (2CD)\CD1\07 Пробуждение (Black Metal Version).wav     Пиковый уровень 100.0 %     Скорость извлечения 4.4 X     Качество трека 100.0 %     CRC теста 2E4A79E3     CRC копии 2E4A79E3     Трек не обнаружен в базе AccurateRip     Копирование... OKТрек  8     Имя файла R:\Раздача 82\Mifious - 2016 - Phantasmagoria (2CD)\CD1\08 Той, Которой Здесь Нет....wav     Пиковый уровень 96.6 %     Скорость извлечения 4.7 X     Качество трека 100.0 %     CRC теста AE49E921     CRC копии AE49E921     Трек не обнаружен в базе AccurateRip     Копирование... OKТрек  9     Имя файла R:\Раздача 82\Mifious - 2016 - Phantasmagoria (2CD)\CD1\09 Oratio Nocturna.wav     Пиковый уровень 65.2 %     Скорость извлечения 5.0 X     Качество трека 100.0 %     CRC теста E74E1F86     CRC копии E74E1F86     Трек не обнаружен в базе AccurateRip     Копирование... OKТрек 10     Имя файла R:\Раздача 82\Mifious - 2016 - Phantasmagoria (2CD)\CD1\10 Ave.wav     Пиковый уровень 67.4 %     Скорость извлечения 4.6 X     Качество трека 100.0 %     CRC теста 6994F182     CRC копии 6994F182     Трек не обнаружен в базе AccurateRip     Копирование... OKТрек 11     Имя файла R:\Раздача 82\Mifious - 2016 - Phantasmagoria (2CD)\CD1\11 Пробуждение.wav     Пиковый уровень 100.0 %     Скорость извлечения 3.0 X     Качество трека 99.9 %     CRC теста A1B31E7D     CRC копии A1B31E7D     Трек не обнаружен в базе AccurateRip     Копирование... OKНи одного трека нет в базе AccurateRipОшибок не произошлоКонец отчёта---- CUETools DB Plugin V2.1.6[CTDB TOCID: 9krM._ucEZxV8FLkTv_xLNAx33k-] disk not present in databaseSubmit result: 9krM._ucEZxV8FLkTv_xLNAx33k- has been uploaded==== Контрольная сумма отчёта 89ECBB2C7C17CAE5F0DB45BA49B207CF0D38373E6C821B1F9E902E5993AC7AA9 ====

Содержание индексной карты (.CUE)

REM GENRE Neo-ClassicalREM DATE 2016REM DISCID 940BDD0BREM COMMENT "ExactAudioCopy v1.3"PERFORMER "Mifious"TITLE "Phantasmagoria - 1CD"REM COMPOSER ""FILE "01 Eden.wav" WAVE  TRACK 01 AUDIO    TITLE "Eden"    PERFORMER "Mifious"    REM COMPOSER ""    INDEX 01 00:00:00FILE "02 Apocalypsis.wav" WAVE  TRACK 02 AUDIO    TITLE "Apocalypsis"    PERFORMER "Mifious"    REM COMPOSER ""    INDEX 01 00:00:00FILE "03 The Abyss.wav" WAVE  TRACK 03 AUDIO    TITLE "The Abyss"    PERFORMER "Mifious"    REM COMPOSER ""    INDEX 01 00:00:00FILE "04 Gothica.wav" WAVE  TRACK 04 AUDIO    TITLE "Gothica"    PERFORMER "Mifious"    REM COMPOSER ""    INDEX 01 00:00:00FILE "05 Проклятые.wav" WAVE  TRACK 05 AUDIO    TITLE "Проклятые"    PERFORMER "Mifious"    REM COMPOSER ""    INDEX 01 00:00:00FILE "06 Ave, Verum.wav" WAVE  TRACK 06 AUDIO    TITLE "Ave, Verum"    PERFORMER "Mifious"    REM COMPOSER ""    INDEX 01 00:00:00FILE "07 Пробуждение (Black Metal Version).wav" WAVE  TRACK 07 AUDIO    TITLE "Пробуждение (Black Metal Version)"    PERFORMER "Mifious"    REM COMPOSER ""    INDEX 01 00:00:00FILE "08 Той, Которой Здесь Нет....wav" WAVE  TRACK 08 AUDIO    TITLE "Той, Которой Здесь Нет..."    PERFORMER "Mifious"    REM COMPOSER ""    INDEX 01 00:00:00FILE "09 Oratio Nocturna.wav" WAVE  TRACK 09 AUDIO    TITLE "Oratio Nocturna"    PERFORMER "Mifious"    REM COMPOSER ""    INDEX 01 00:00:00FILE "10 Ave.wav" WAVE  TRACK 10 AUDIO    TITLE "Ave"    PERFORMER "Mifious"    REM COMPOSER ""    INDEX 01 00:00:00FILE "11 Пробуждение.wav" WAVE  TRACK 11 AUDIO    TITLE "Пробуждение"    PERFORMER "Mifious"    REM COMPOSER ""    INDEX 01 00:00:00

CD2

01. Got(h)t [0:03:59.55]
02. Celestial Spirit [0:06:06.00]
03. Spring Wind [0:03:26.48]
04. Ocean [0:06:34.26]
05. Dark Space [0:03:07.52]
06. Iren II [0:05:27.20]
07. Freedom Fly [0:03:29.45]
08. Rainbow Rain [0:02:54.71]
09. Tenderness [0:03:59.55]
10. Gothica (Piano version) [0:03:22.04]
11. Mysteria - Part 2 [0:12:54.00]
12. Memories [0:03:36.17]
13. Heaven [0:05:45.59]

Лог создания рипа

Exact Audio Copy V1.3 from 2. September 2016Отчёт EAC об извлечении, выполненном 28. марта 2019, 22:25Mifious / Phantasmagoria IIДисковод: ASUS    DRW-1814BLT   Adapter: 1  ID: 0Режим чтения                 : ДостоверностьИспользование точного потока : ДаОтключение кэша аудио        : ДаИспользование указателей C2  : НетКоррекция смещения при чтении                     : 6Способность читать области Lead-in и Lead-out     : НетЗаполнение пропущенных сэмплов тишиной            : ДаУдаление блоков с тишиной в начале и конце        : НетПри вычислениях CRC использовались нулевые сэмплы : ДаИнтерфейс                                         : Встроенный Win32-интерфейс для Win NT/2000Обработка зазоров                                 : Добавлено к предыдущему трекуВыходной формат          : Пользовательский кодировщикВыбранный битрейт        : 128 kBit/sКачество                 : ВысокийДобавление ID3-тега      : НетУтилита сжатия           : C:\Program Files (x86)\Exact Audio Copy\Flac\flac.exeДополнительные параметры : -V -8 -T "Genre=%genre%" -T "Artist=%artist%" -T "Title=%title%" -T "Album=%albumtitle%" -T "Date=%year%" -T "Tracknumber=%tracknr%" -T "Comment=EAC1.0b2 FLAC -8" %source%TOC извлечённого CD     Трек |   Старт  | Длительность | Начальный сектор | Конечный сектор    ---------------------------------------------------------------------       1  |  0:00.00 |    3:59.55   |           0      |      17979       2  |  3:59.55 |    6:06.00   |       17980      |      45429       3  | 10:05.55 |    3:26.48   |       45430      |      60927       4  | 13:32.28 |    6:34.26   |       60928      |      90503       5  | 20:06.54 |    3:07.52   |       90504      |     104580       6  | 23:14.31 |    5:27.20   |      104581      |     129125       7  | 28:41.51 |    3:29.45   |      129126      |     144845       8  | 32:11.21 |    2:54.71   |      144846      |     157966       9  | 35:06.17 |    3:59.55   |      157967      |     175946      10  | 39:05.72 |    3:22.04   |      175947      |     191100      11  | 42:28.01 |   12:54.00   |      191101      |     249150      12  | 55:22.01 |    3:36.17   |      249151      |     265367      13  | 58:58.18 |    5:45.59   |      265368      |     291301Трек  1     Имя файла R:\Раздача 82\Mifious - 2016 - Phantasmagoria (2CD)\CD2\01 Got(h)t.wav     Длина предзазора  0:00:02.00     Пиковый уровень 100.0 %     Скорость извлечения 2.9 X     Качество трека 100.0 %     CRC теста 06CAC677     CRC копии 06CAC677     Трек не обнаружен в базе AccurateRip     Копирование... OKТрек  2     Имя файла R:\Раздача 82\Mifious - 2016 - Phantasmagoria (2CD)\CD2\02 Celestial Spirit.wav     Пиковый уровень 97.1 %     Скорость извлечения 3.4 X     Качество трека 100.0 %     CRC теста 81A396B9     CRC копии 81A396B9     Трек не обнаружен в базе AccurateRip     Копирование... OKТрек  3     Имя файла R:\Раздача 82\Mifious - 2016 - Phantasmagoria (2CD)\CD2\03 Spring Wind.wav     Пиковый уровень 96.6 %     Скорость извлечения 3.4 X     Качество трека 100.0 %     CRC теста D81E7FF9     CRC копии D81E7FF9     Трек не обнаружен в базе AccurateRip     Копирование... OKТрек  4     Имя файла R:\Раздача 82\Mifious - 2016 - Phantasmagoria (2CD)\CD2\04 Ocean.wav     Пиковый уровень 86.1 %     Скорость извлечения 3.9 X     Качество трека 100.0 %     CRC теста 2825F291     CRC копии 2825F291     Трек не обнаружен в базе AccurateRip     Копирование... OKТрек  5     Имя файла R:\Раздача 82\Mifious - 2016 - Phantasmagoria (2CD)\CD2\05 Dark Space.wav     Пиковый уровень 95.9 %     Скорость извлечения 3.8 X     Качество трека 100.0 %     CRC теста 5D4C7B80     CRC копии 5D4C7B80     Трек не обнаружен в базе AccurateRip     Копирование... OKТрек  6     Имя файла R:\Раздача 82\Mifious - 2016 - Phantasmagoria (2CD)\CD2\06 Iren II.wav     Пиковый уровень 91.5 %     Скорость извлечения 4.3 X     Качество трека 100.0 %     CRC теста 325C335F     CRC копии 325C335F     Трек не обнаружен в базе AccurateRip     Копирование... OKТрек  7     Имя файла R:\Раздача 82\Mifious - 2016 - Phantasmagoria (2CD)\CD2\07 Freedom Fly.wav     Пиковый уровень 74.4 %     Скорость извлечения 4.3 X     Качество трека 100.0 %     CRC теста 0AC95938     CRC копии 0AC95938     Трек не обнаружен в базе AccurateRip     Копирование... OKТрек  8     Имя файла R:\Раздача 82\Mifious - 2016 - Phantasmagoria (2CD)\CD2\08 Rainbow Rain.wav     Пиковый уровень 73.9 %     Скорость извлечения 2.5 X     Качество трека 99.9 %     CRC теста C36BE536     CRC копии C36BE536     Трек не обнаружен в базе AccurateRip     Копирование... OKТрек  9     Имя файла R:\Раздача 82\Mifious - 2016 - Phantasmagoria (2CD)\CD2\09 Tenderness.wav     Пиковый уровень 75.6 %     Скорость извлечения 4.6 X     Качество трека 100.0 %     CRC теста 8BE99B0B     CRC копии 8BE99B0B     Трек не обнаружен в базе AccurateRip     Копирование... OKТрек 10     Имя файла R:\Раздача 82\Mifious - 2016 - Phantasmagoria (2CD)\CD2\10 Gothica (Piano version).wav     Пиковый уровень 69.4 %     Скорость извлечения 4.6 X     Качество трека 100.0 %     CRC теста 46B129A5     CRC копии 46B129A5     Трек не обнаружен в базе AccurateRip     Копирование... OKТрек 11     Имя файла R:\Раздача 82\Mifious - 2016 - Phantasmagoria (2CD)\CD2\11 Mysteria - Part 2.wav     Пиковый уровень 94.4 %     Скорость извлечения 5.6 X     Качество трека 100.0 %     CRC теста 59293472     CRC копии 59293472     Трек не обнаружен в базе AccurateRip     Копирование... OKТрек 12     Имя файла R:\Раздача 82\Mifious - 2016 - Phantasmagoria (2CD)\CD2\12 Memories.wav     Пиковый уровень 94.4 %     Скорость извлечения 5.3 X     Качество трека 100.0 %     CRC теста 82A9AC45     CRC копии 82A9AC45     Трек не обнаружен в базе AccurateRip     Копирование... OKТрек 13     Имя файла R:\Раздача 82\Mifious - 2016 - Phantasmagoria (2CD)\CD2\13 Heaven.wav     Пиковый уровень 62.3 %     Скорость извлечения 5.7 X     Качество трека 100.0 %     CRC теста 7F3D5D2D     CRC копии 7F3D5D2D     Трек не обнаружен в базе AccurateRip     Копирование... OKНи одного трека нет в базе AccurateRipОшибок не произошлоКонец отчёта---- CUETools DB Plugin V2.1.6[CTDB TOCID: BicpI_ovND7w5xfvUD0ktHhpUSo-] disk not present in databaseSubmit result: BicpI_ovND7w5xfvUD0ktHhpUSo- has been uploaded==== Контрольная сумма отчёта 7B236647CA9800073864E5798D64B41CE1FCFE959D9F15187C5B0371E92EC83F ====

Содержание индексной карты (.CUE)

REM GENRE Neo-ClassicalREM DATE 2016REM DISCID 9D0F2C0DREM COMMENT "ExactAudioCopy v1.3"PERFORMER "Mifious"TITLE "Phantasmagoria II"REM COMPOSER ""FILE "01 Got(h)t.wav" WAVE  TRACK 01 AUDIO    TITLE "Got(h)t"    PERFORMER "Mifious"    REM COMPOSER ""    INDEX 01 00:00:00FILE "02 Celestial Spirit.wav" WAVE  TRACK 02 AUDIO    TITLE "Celestial Spirit"    PERFORMER "Mifious"    REM COMPOSER ""    INDEX 01 00:00:00FILE "03 Spring Wind.wav" WAVE  TRACK 03 AUDIO    TITLE "Spring Wind"    PERFORMER "Mifious"    REM COMPOSER ""    INDEX 01 00:00:00FILE "04 Ocean.wav" WAVE  TRACK 04 AUDIO    TITLE "Ocean"    PERFORMER "Mifious"    REM COMPOSER ""    INDEX 01 00:00:00FILE "05 Dark Space.wav" WAVE  TRACK 05 AUDIO    TITLE "Dark Space"    PERFORMER "Mifious"    REM COMPOSER ""    INDEX 01 00:00:00FILE "06 Iren II.wav" WAVE  TRACK 06 AUDIO    TITLE "Iren II"    PERFORMER "Mifious"    REM COMPOSER ""    INDEX 01 00:00:00FILE "07 Freedom Fly.wav" WAVE  TRACK 07 AUDIO    TITLE "Freedom Fly"    PERFORMER "Mifious"    REM COMPOSER ""    INDEX 01 00:00:00FILE "08 Rainbow Rain.wav" WAVE  TRACK 08 AUDIO    TITLE "Rainbow Rain"    PERFORMER "Mifious"    REM COMPOSER ""    INDEX 01 00:00:00FILE "09 Tenderness.wav" WAVE  TRACK 09 AUDIO    TITLE "Tenderness"    PERFORMER "Mifious"    REM COMPOSER ""    INDEX 01 00:00:00FILE "10 Gothica (Piano version).wav" WAVE  TRACK 10 AUDIO    TITLE "Gothica (Piano version)"    PERFORMER "Mifious"    REM COMPOSER ""    INDEX 01 00:00:00FILE "11 Mysteria - Part 2.wav" WAVE  TRACK 11 AUDIO    TITLE "Mysteria - Part 2"    PERFORMER "Mifious"    REM COMPOSER ""    INDEX 01 00:00:00FILE "12 Memories.wav" WAVE  TRACK 12 AUDIO    TITLE "Memories"    PERFORMER "Mifious"    REM COMPOSER ""    INDEX 01 00:00:00FILE "13 Heaven.wav" WAVE  TRACK 13 AUDIO    TITLE "Heaven"    PERFORMER "Mifious"    REM COMPOSER ""    INDEX 01 00:00:00

Об исполнителе (группе)

Mifious (Яков Босых) – (ONE MAN BAND) отечественный музыкальный и поэтический проект,
с многогранной палитрой. Охватывает множество стилей в музыке.
Рок, металл, классика, опера, готика, эмбиент - исполненная как
инструментально, так и на русском, древней латыни, литовском языках.

To download the content you need:
1. Download and install torrent client [for Windows] or for mobile system
2. Click on [Download]
Attention.
If the test YOU are NOT a ROBOT - does not work, then You are using an outdated browser.
Install the current browser and click on [Download]
Security: torrent client is allowed by Kaspersky.

[asmlocator.ru].t626122.torrent 
Torrent: Registered [ 2019-04-07 14:20 ] · 55E10ACE016BC40F962C4F66602A2593BF39E84C

Download .torrent

Download

16 KB

Status: checked
Completed: 0 times
Size: 667 MB
terms.php
[Profile] [PM]
Display posts:    
Reply to topic

Current time is: 25-Apr 14:51

All times are UTC ± 0



You cannot post new topics in this forum
You cannot reply to topics in this forum
You cannot edit your posts in this forum
You cannot delete your posts in this forum
You cannot vote in polls in this forum
You cannot attach files in this forum
You can download files in this forum