Коррупционер / The Corruptor (Джеймс Фоули / James Foley) [1999, США, Боевик, HDRip] VO

Ответить на тему
Статистика раздачи
Размер:  1,45 GB   |    Зарегистрирован:  8 месяцев 11 дней   |    Скачан:  1 раз

Полного источника не было: 1 месяц 23 дня

 
   
 
 
Автор Сообщение

star21 ®

Пол: Женский

Стаж: 4 года 1 месяц

Сообщений: 551946

Откуда: Екатеринбург

Создавать темы 01-Апр-2019 10:25

[Цитировать]

Коррупционер / The Corruptor Страна: США
Жанр: Боевик
Год выпуска: 1999
Продолжительность: 01:50:09Перевод: Одноголосый закадровый
Субтитры: нет
Режиссер: Джеймс Фоули / James FoleyВ ролях: Чоу Юнь-Фат, Марк Уолберг, Рик Янг, Пол Бен-Виктор, Джонкит Ли, Эндрю Пэнг, Элизабет
Линдси, Брайан Кокс, Байрон Манн, Ким ЧанОписание: Лейтенант Ник Чен — один из наиболее заслуженных полицейских Нью-Йорка. Как
китайский иммигрант, Чен использовал связи с Триадой, чтобы продвинуться по служебной
лестнице. Теперь он поддерживает порядок в Чайна-тауне. Когда началась война между Тонгами и
Фукинскими Драконами Чен получает в напарники новичка-идеалиста Денни Уоллеса, который
поначалу не осознает всю власть и влияние своего нового босса…Доп. информация: Дорожка с VO синхронизирована и наложена ale_x2008 при помощи Sony Vegas и
VirtualDubMod.
За оцифрованную с VHS дорожку благодарим - d_rocker
Релиз Сэмпл: https://yadi.sk/i/fnDQjoPTqjjXkgКачество видео: HDRip
Формат видео: AVIВидео: 720x304 (2.37:1), 23.976 fps, XviD build 73 ~1680 kbps avg, 0.32 bit/pixel
Аудио: AC3 Dolby Digital, 48000Hz 2/0 (L,R) ch (mono), 192 kbps avg

MediaInfo

Коррупционер (The Corruptor) [by ale_x2008].aviFormat                      : AVIFormat/Info                 : Audio Video InterleaveFile size                   : 1.45 GiBDuration                    : 1 h 50 minOverall bit rate            : 1 882 kb/sMovie name                  : Коррупционер (The Corruptor) [by ale_x2008]Director                    : by ale_x2008Writing application         : VirtualDubMod 1.5.10.2 (build 2540/release)Copyright                   : Edich2Comment                     : RuTracker.orgVideoID                          : 0Format                      : MPEG-4 VisualFormat profile              : Advanced Simple@L5Format settings             : BVOP2 / Custom MatrixFormat settings, BVOP       : 2Format settings, QPel       : NoFormat settings, GMC        : No warppointsFormat settings, Matrix     : CustomCodec ID                    : XVIDCodec ID/Hint               : XviDDuration                    : 1 h 50 minBit rate                    : 1 681 kb/sWidth                       : 720 pixelsHeight                      : 304 pixelsDisplay aspect ratio        : 2.35:1Frame rate                  : 23.976 (24000/1001) FPSColor space                 : YUVChroma subsampling          : 4:2:0Bit depth                   : 8 bitsScan type                   : ProgressiveCompression mode            : LossyBits/(Pixel*Frame)          : 0.320Stream size                 : 1.29 GiB (89%)Writing library             : XviD 73AudioID                          : 1Format                      : AC-3Format/Info                 : Audio Coding 3Codec ID                    : 2000Duration                    : 1 h 50 minBit rate mode               : ConstantBit rate                    : 192 kb/sChannel(s)                  : 2 channelsChannel positions           : Front: L RSampling rate               : 48.0 kHzFrame rate                  : 31.250 FPS (1536 SPF)Bit depth                   : 16 bitsCompression mode            : LossyStream size                 : 151 MiB (10%)Alignment                   : Split accross interleavesInterleave, duration        : 42  ms (1.00 video frame)Interleave, preload duratio : 500  msService kind                : Complete Main

Скриншоты

Чтобы скачать этот контент, Вам необходимо:
1. Скачать и установить торрент-клиент [клик для Windows], (для мобильного найдите на Play Маркет).
2. Кликнуть по [Скачать]


Внимание.
Если проверка ВЫ НЕ РОБОТ - не работает, значит Вы используете устаревший браузер.
Установите актуальный браузер и повторно кликните по [Скачать]
Безопасность: торрент-клиент разрешён АВ Касперского.

[asmlocator.ru].t624867.torrent 
Торрент: Зарегистрирован [ 2019-04-01 10:25 ] · 5BE661930DFCE6F219E5376C46E443A52A0A076B

Скачать .torrent

Скачать

15 KB

Статус: проверено
Скачан: 1 раз
Размер: 1,45 GB
terms.php
[Профиль] [ЛС]
Показать сообщения:    
Ответить на тему

Текущее время: 12-Дек 14:59

Часовой пояс: UTC ± 0



Вы не можете начинать темы
Вы не можете отвечать на сообщения
Вы не можете редактировать свои сообщения
Вы не можете удалять свои сообщения
Вы не можете голосовать в опросах
Вы не можете прикреплять файлы к сообщениям
Вы можете скачивать файлы
Верим фактам, а не вранью Путина! Факт, что Правительство ведёт Россию к истреблению.
Так как численность населения падает, даже не смотря на приток эмигрантов!
Русская нация вымирает и вырождается, смешиваясь с эмигрантами!
Факт, что военных и граждан предприятий заставляют голосовать за партию Единая Россия и Путина
ПОД СТРАХОМ УВОЛЬНЕНИЯ!
Нам не нужно Правительство, блокирующее личную жизнь, интернет, нарушающее сохранность данных.
Все эти действия финансируются за счёт народа!