Разбойники с большой дороги / The Highwaymen (Джон Ли Хэнкок / John Lee Hancock) [2019, США, триллер, драма, криминал, детектив, WEBRip 1080p] DUB (АРК-ТВ Studio) + Original (Eng) + Sub (Rus, Eng)

Reply to topic
DL-List and Torrent activity
Size:  9.51 GB   |    Registered:  22 days   |    Completed:  2 times

Seeder not seen: 1 hour 8 minutes

 
   
 
 
Author Message

star21 ®

Gender: Female

Longevity: 3 years 5 months

Posts: 552392

Location: Екатеринбург

Post 30-Mar-2019 18:20

[Quote]

В погоне за Бонни и Клайдом / Разбойники с большой дороги / The Highwaymen Год выпуска: 2019
Производство: США, Universal Pictures, Casey Silver Productions, Media Rights Capital (MRC), Netflix
Жанр: триллер, драма, криминал, детектив
Продолжительность: 02:12:00Перевод: Профессиональный (полное дублирование) | АРК-ТВ Studio и VSI International
Роли озвучивали: Владимир Антонин, Дмитрий Полонский, Александр Коврижных, Владимир Никитин, Борис Токарев, Татьяна Монетина, Ольга Кузнецова, Алексей Костричкин, Александр Воронов, Геннадий Новиков, Евгений Рубцов, Павел КипнисСубтитры: русские (форсированные, полные), английские (SDH)
Оригинальная аудиодорожка: английскаяРежиссер: Джон Ли Хэнкок / John Lee Hancock
В ролях: Кевин Костнер, Вуди Харрельсон, Ким Диккенс, Кэти Бейтс, Томас Манн, Джон Кэрролл Линч, У. Эрл Браун, Дэвид Фурр, Эмили БробстОписание: В 1930-е годы техасский рейнджер Фрэнк Хеймер получает задание поймать и обезвредить двух опасных грабителей банков. Вместе с напарником Мэнни Голтом он возглавляет охоту за парочкой молодых неуловимых преступников, которых зовут Бонни и Клайд. Качество: WEBRip 1080p | DEFLATE
Контейнер: MKV
Видео: AVC, 1920x800 (16:9), 24 fps, ~8923 kbps
Аудио №1: E-AC3 5.1, 48 kHz, 640 kbps
Аудио №2: E-AC3+Atmos 5.1, 48 kHz, 768 kbps
Формат субтитров: softsub (SRT)Релиз: Wilmots@EniaHD

MediaInfo

GeneralUnique ID                      : 30063496972360281738842072323374870511 (0x169E04D6F8BB121D7B542B0841DA6FEF)Complete name                  : G:\The.Highwaymen.2019.1080p.WEBRip.X264-DEFLATE\The.Highwaymen.2019.1080p.WEBRip.X264-EniaHD.mkvFormat                         : MatroskaFormat version                 : Version 4 / Version 2File size                      : 9.51 GiBDuration                       : 2 h 11 minOverall bit rate               : 10.3 Mb/sMovie name                     : The Highwaymen (2019) - EniaHDEncoded date                   : UTC 2019-03-30 13:11:23Writing application            : mkvmerge v32.0.0 ('Astral Progressions') 64-bitWriting library                : libebml v1.3.7 + libmatroska v1.5.0VideoID                             : 1Format                         : AVCFormat/Info                    : Advanced Video CodecFormat profile                 : High@L4.1Format settings                : CABAC / 5 Ref FramesFormat settings, CABAC         : YesFormat settings, ReFrames      : 5 framesCodec ID                       : V_MPEG4/ISO/AVCDuration                       : 2 h 11 minBit rate                       : 8 923 kb/sWidth                          : 1 920 pixelsHeight                         : 800 pixelsDisplay aspect ratio           : 2.40:1Frame rate mode                : ConstantFrame rate                     : 24.000 FPSColor space                    : YUVChroma subsampling             : 4:2:0Bit depth                      : 8 bitsScan type                      : ProgressiveBits/(Pixel*Frame)             : 0.242Stream size                    : 8.21 GiB (86%)Writing library                : x264 core 157 r2970+4 (master: 5493be8 / tmod: ee101b3) [X86_64]Encoding settings              : cabac=1 / ref=5 / deblock=1:-3:-3 / analyse=0x3:0x133 / me=umh / subme=11 / psy=1 / psy_rd=1.05:0.15 / mixed_ref=1 / me_range=48 / chroma_me=1 / trellis=2 / 8x8dct=1 / cqm=0 / deadzone=6,6 / fast_pskip=0 / chroma_qp_offset=-3 / threads=25 / lookahead_threads=6 / sliced_threads=0 / nr=0 / decimate=0 / interlaced=0 / bluray_compat=0 / constrained_intra=0 / bframes=10 / b_pyramid=2 / b_adapt=2 / b_bias=0 / direct=3 / weightb=1 / open_gop=0 / weightp=2 / keyint=250 / keyint_min=24 / scenecut=40 / intra_refresh=0 / rc_lookahead=60 / rc=crf / mbtree=0 / crf=17.0 / qcomp=0.70 / qpmin=0 / qpmax=69 / qpstep=4 / vbv_maxrate=62500 / vbv_bufsize=78125 / crf_max=0.0 / nal_hrd=none / filler=0 / ip_ratio=1.25 / pb_ratio=1.20 / aq=3:0.80Language                       : EnglishDefault                        : YesForced                         : NoAudio #1ID                             : 2Format                         : E-AC-3Format/Info                    : Enhanced Audio Coding 3Codec ID                       : A_EAC3Duration                       : 2 h 11 minBit rate mode                  : ConstantBit rate                       : 640 kb/sChannel(s)                     : 6 channelsChannel positions              : Front: L C R, Side: L R, LFESampling rate                  : 48.0 kHzFrame rate                     : 187.500 FPS (256 SPF)Compression mode               : LossyStream size                    : 603 MiB (6%)Title                          : DUBLanguage                       : RussianService kind                   : Complete MainDefault                        : YesForced                         : NoAudio #2ID                             : 3Format                         : E-AC-3Format/Info                    : Enhanced Audio Coding 3Format profile                 : E-AC-3+Atmos / E-AC-3Codec ID                       : A_EAC3Duration                       : 2 h 11 minBit rate mode                  : ConstantBit rate                       : 768 kb/sChannel(s)                     : 15 objects / 6 channelsChannel positions              : 15 objects / Front: L C R, Side: L R, LFESampling rate                  : 48.0 kHzFrame rate                     : 187.500 FPS (256 SPF)Compression mode               : LossyStream size                    : 724 MiB (7%)Title                          : OriginalLanguage                       : EnglishService kind                   : Complete MainDefault                        : NoForced                         : NoText #1ID                             : 4Format                         : UTF-8Codec ID                       : S_TEXT/UTF8Codec ID/Info                  : UTF-8 Plain TextDuration                       : 2 h 11 minBit rate                       : 2 b/sCount of elements              : 43Stream size                    : 2.35 KiB (0%)Title                          : ForcedLanguage                       : RussianDefault                        : YesForced                         : YesText #2ID                             : 5Format                         : UTF-8Codec ID                       : S_TEXT/UTF8Codec ID/Info                  : UTF-8 Plain TextDuration                       : 2 h 11 minBit rate                       : 61 b/sCount of elements              : 1375Stream size                    : 59.2 KiB (0%)Title                          : FullLanguage                       : RussianDefault                        : NoForced                         : NoText #3ID                             : 6Format                         : UTF-8Codec ID                       : S_TEXT/UTF8Codec ID/Info                  : UTF-8 Plain TextDuration                       : 2 h 4 minBit rate                       : 48 b/sCount of elements              : 1513Stream size                    : 44.4 KiB (0%)Title                          : SDHLanguage                       : EnglishDefault                        : NoForced                         : No

Скриншоты


To download the content you need:
1. Download and install torrent client [for Windows] or for mobile system
2. Click on [Download]
Attention.
If the test YOU are NOT a ROBOT - does not work, then You are using an outdated browser.
Install the current browser and click on [Download]
Security: torrent client is allowed by Kaspersky.

[asmlocator.ru].t624530.torrent 
Torrent: Registered [ 2019-03-30 18:20 ] · 3EB821CDD756822ED066DEA16D6F8A09A7EAFB8E

Download .torrent

Download

191 KB

Status: checked
Completed: 2 times
Size: 9.51 GB
terms.php
[Profile] [PM]
Display posts:    
Reply to topic

Current time is: 22-Apr 15:08

All times are UTC ± 0



You cannot post new topics in this forum
You cannot reply to topics in this forum
You cannot edit your posts in this forum
You cannot delete your posts in this forum
You cannot vote in polls in this forum
You cannot attach files in this forum
You can download files in this forum