Робоцып / Robot Chicken / Сезон: 9 / Серии: 00-20 из 20 (Сет Грин, Мэтью Синрайк / Seth Green, Matthew Senreich) [2017-2018, США, Сатира, Пародия, Чёрный Юмор, WEBRip] VO (2x2) + Original + Sub (Eng)

Reply to topic
DL-List and Torrent activity
Size:  6.79 GB   |    Registered:  3 months 19 days   |    Completed:  0 times

Seeder not seen: Never

 
   
 
 
Author Message

star21 ®

Gender: Female

Longevity: 3 years 8 months

Posts: 552042

Location: Екатеринбург

Post 30-Mar-2019 05:45

[Quote]

Робоцып / Robot Chicken Страна: США
Жанр: Сатира, Пародия, Чёрный Юмор
Продолжительность серии: ~ 00:11:00 х 19 + 00:22:29 х 1
Год выпуска: 2017-2018
Перевод: Одноголосый закадровый [2x2]
Русские субтитры: нетРежиссёр: Сет Грин, Мэтью Синрайк / Seth Green, Matthew Senreich
Роли озвучивали: Seth Green, Matthew Senreich, Jordan Allen-Dutton, Candace Bailey, Abraham Benrubi, Alex Borstein...Описание: "Робоцып" - калейдоскоп коротких скетчей, полных чёрного юмора и сатиры. Практически каждая сценка пародирует кино, телешоу, компьютерные игры, героев мультфильмов и комиксов, актёров, политиков, певцов и других знаменитостей, а также продукты питания, рекламные ролики или прочие проявления массовой культуры. Все серии объединены общим сюжетом, по которому некий Робоцып оживил безумного учёного, привязал его к креслу и заставил смотреть несколько телевизоров сразу. Причём, смены скетчей выполнены в виде переключения каналов.Сэмпл: http://multi-up.com/1219460
Качество: WEBRip
Формат: MKV
Видео: MPEG-4 AVC, 1280x720 (16:9), 29.970 fps, ~ 3000 kbps
Аудио 1: AC3, 48 kHz, 192 kbps, 2ch. Русский [2x2]
Аудио 2: AC3, 48 kHz, 640 kbps, 6ch. Английский
Субтитры: SubRip, Английские

Подробные технические данные

GeneralUnique ID                                : 254414641542639598849704230023260378828 (0xBF667A46DC6395CB92418D2C13FD96CC)Complete name                            : Robot.Chicken.S09E01.Hey.I.Found.Another.Sock.WEBRip.720p.mkvFormat                                   : MatroskaFormat version                           : Version 4File size                                : 310 MiBDuration                                 : 11 min 12 sOverall bit rate                         : 3 865 kb/sEncoded date                             : UTC 2019-01-04 17:09:38Writing application                      : mkvmerge v7.7.0 ('Six Voices') 32bit built on Feb 28 2015 23:23:00Writing library                          : libebml v1.3.1 + libmatroska v1.4.2VideoID                                       : 1Format                                   : AVCFormat/Info                              : Advanced Video CodecFormat profile                           : High@L4.1Format settings                          : CABAC / 9 Ref FramesFormat settings, CABAC                   : YesFormat settings, RefFrames               : 9 framesCodec ID                                 : V_MPEG4/ISO/AVCDuration                                 : 11 min 12 sBit rate                                 : 3 030 kb/sWidth                                    : 1 280 pixelsHeight                                   : 720 pixelsDisplay aspect ratio                     : 16:9Frame rate mode                          : ConstantFrame rate                               : 29.970 (30000/1001) FPSColor space                              : YUVChroma subsampling                       : 4:2:0Bit depth                                : 8 bitsScan type                                : ProgressiveBits/(Pixel*Frame)                       : 0.110Stream size                              : 243 MiB (78%)Writing library                          : x264 core 148 r2744 b97ae06Encoding settings                        : cabac=1 / ref=9 / deblock=1:-3:-3 / analyse=0x3:0x133 / me=umh / subme=10 / psy=1 / psy_rd=1.00:0.00 / mixed_ref=1 / me_range=48 / chroma_me=1 / trellis=2 / 8x8dct=1 / cqm=0 / deadzone=21,11 / fast_pskip=1 / chroma_qp_offset=-2 / threads=12 / lookahead_threads=2 / sliced_threads=0 / nr=0 / decimate=0 / interlaced=0 / bluray_compat=0 / constrained_intra=0 / bframes=8 / b_pyramid=2 / b_adapt=2 / b_bias=0 / direct=3 / weightb=1 / open_gop=0 / weightp=2 / keyint=300 / keyint_min=29 / scenecut=40 / intra_refresh=0 / rc=crf / mbtree=0 / crf=17.0 / qcomp=0.60 / qpmin=0 / qpmax=69 / qpstep=4 / ip_ratio=1.40 / pb_ratio=1.30 / aq=3:0.70Language                                 : EnglishDefault                                  : YesForced                                   : NoAudio #1ID                                       : 2Format                                   : AC-3Format/Info                              : Audio Coding 3Commercial name                          : Dolby DigitalCodec ID                                 : A_AC3Duration                                 : 11 min 12 sBit rate mode                            : ConstantBit rate                                 : 192 kb/sChannel(s)                               : 2 channelsChannel layout                           : L RSampling rate                            : 48.0 kHzFrame rate                               : 31.250 FPS (1536 SPF)Bit depth                                : 16 bitsCompression mode                         : LossyStream size                              : 15.4 MiB (5%)Language                                 : RussianService kind                             : Complete MainDefault                                  : YesForced                                   : NoAudio #2ID                                       : 3Format                                   : E-AC-3Format/Info                              : Enhanced AC-3Commercial name                          : Dolby Digital PlusCodec ID                                 : A_EAC3Duration                                 : 11 min 12 sBit rate mode                            : ConstantBit rate                                 : 640 kb/sChannel(s)                               : 6 channelsChannel layout                           : L R C LFE Ls RsSampling rate                            : 48.0 kHzFrame rate                               : 31.250 FPS (1536 SPF)Compression mode                         : LossyStream size                              : 51.3 MiB (17%)Language                                 : EnglishService kind                             : Complete MainDefault                                  : NoForced                                   : NoTextID                                       : 4Format                                   : UTF-8Codec ID                                 : S_TEXT/UTF8Codec ID/Info                            : UTF-8 Plain TextDuration                                 : 10 min 54 sBit rate                                 : 87 b/sCount of elements                        : 262Stream size                              : 6.98 KiB (0%)Language                                 : EnglishDefault                                  : NoForced                                   : No
Спецвыпуск по Ходячим мертвецам:
Качество: WEB-DL 720p
Формат: MKV
Видео: MPEG-4 AVC, 1280x720 (16:9), 29.970 fps, ~ 6500 kbps
Аудио 1: AC3, 48 kHz, 192 kbps, 2ch. Русский [2x2]
Аудио 2: AAC, 44.1 kHz, 128 kbps, 2ch. Английский
Субтитры: SubRip, Английские

Подробные технические данные

GeneralUnique ID                                : 213571011933385608326655349417468893252 (0xA0AC47DCD803E410855AD391FE561844)Complete name                            : Robot.Chicken.S09E20.Walking.Dead.Special.Look.Whos.Walking.WEB-DL.720p.mkvFormat                                   : MatroskaFormat version                           : Version 4File size                                : 1.04 GiBDuration                                 : 22 min 29 sOverall bit rate                         : 6 646 kb/sEncoded date                             : UTC 2019-01-06 15:52:16Writing application                      : mkvmerge v7.7.0 ('Six Voices') 32bit built on Feb 28 2015 23:23:00Writing library                          : libebml v1.3.1 + libmatroska v1.4.2VideoID                                       : 1Format                                   : AVCFormat/Info                              : Advanced Video CodecFormat profile                           : Main@L3.1Format settings                          : CABAC / 2 Ref FramesFormat settings, CABAC                   : YesFormat settings, RefFrames               : 2 framesCodec ID                                 : V_MPEG4/ISO/AVCDuration                                 : 22 min 29 sBit rate mode                            : ConstantBit rate                                 : 6 500 kb/sWidth                                    : 1 280 pixelsHeight                                   : 720 pixelsDisplay aspect ratio                     : 16:9Frame rate mode                          : ConstantFrame rate                               : 29.970 (30000/1001) FPSColor space                              : YUVChroma subsampling                       : 4:2:0Bit depth                                : 8 bitsScan type                                : ProgressiveBits/(Pixel*Frame)                       : 0.235Stream size                              : 1 018 MiB (95%)Default                                  : YesForced                                   : NoAudio #1ID                                       : 2Format                                   : AC-3Format/Info                              : Audio Coding 3Commercial name                          : Dolby DigitalCodec ID                                 : A_AC3Duration                                 : 22 min 29 sBit rate mode                            : ConstantBit rate                                 : 192 kb/sChannel(s)                               : 2 channelsChannel layout                           : L RSampling rate                            : 48.0 kHzFrame rate                               : 31.250 FPS (1536 SPF)Bit depth                                : 16 bitsCompression mode                         : LossyDelay relative to video                  : -23 msStream size                              : 30.9 MiB (3%)Language                                 : RussianService kind                             : Complete MainDefault                                  : YesForced                                   : NoAudio #2ID                                       : 3Format                                   : AAC LCFormat/Info                              : Advanced Audio Codec Low ComplexityCodec ID                                 : A_AAC-2Duration                                 : 22 min 29 sBit rate                                 : 126 kb/sChannel(s)                               : 2 channelsChannel layout                           : L RSampling rate                            : 44.1 kHzFrame rate                               : 43.066 FPS (1024 SPF)Compression mode                         : LossyDelay relative to video                  : -23 msStream size                              : 20.2 MiB (2%)Language                                 : EnglishDefault                                  : NoForced                                   : NoTextID                                       : 4Format                                   : UTF-8Codec ID                                 : S_TEXT/UTF8Codec ID/Info                            : UTF-8 Plain TextDuration                                 : 22 min 16 sBit rate                                 : 93 b/sCount of elements                        : 535Stream size                              : 15.3 KiB (0%)Language                                 : EnglishDefault                                  : NoForced                                   : No

Скриншоты


Предыдущие и альтернативные раздачиТоррент обновлен. Добавлен спецвыпуск по Ходячим мертвецам

To download the content you need:
1. Download and install torrent client [for Windows] or for mobile system
2. Click on [Download]
Attention.
If the test YOU are NOT a ROBOT - does not work, then You are using an outdated browser.
Install the current browser and click on [Download]
Security: torrent client is allowed by Kaspersky.

[asmlocator.ru].t624492.torrent 
Torrent: Registered [ 2019-03-30 05:45 ] · 82779803A592AA1884493AB898915A38612E0BA3

Download .torrent

Download

36 KB

Status: checked
Completed: 0 times
Size: 6.79 GB
terms.php
[Profile] [PM]
Display posts:    
Reply to topic

Current time is: 18-Jul 20:27

All times are UTC ± 0



You cannot post new topics in this forum
You cannot reply to topics in this forum
You cannot edit your posts in this forum
You cannot delete your posts in this forum
You cannot vote in polls in this forum
You cannot attach files in this forum
You can download files in this forum