Евровидение 2019. Финал национального отборочного тура (Беларусь) [2019, Pop, SATRip]

Reply to topic
DL-List and Torrent activity
Size:  4.07 GB   |    Registered:  3 months 24 days   |    Completed:  0 times

Seeder not seen: 34 minutes

 
   
 
 
Author Message

star21 ®

Gender: Female

Longevity: 3 years 8 months

Posts: 552050

Location: Екатеринбург

Post 23-Mar-2019 09:05

[Quote]

Евровидение 2019. Финал национального отборочного тура Страна: Беларусь
Жанр: Pop
Продолжительность: 01:48:39
Год выпуска: 2019Описание: Внимание поклонников "Евровидения" сейчас наверняка сосредоточено на финале национального отбора песенного конкурса и уже через считанные часы увенчается презентом в виде разрешенной интриги: кто представит нашу страну в мае в Тель-Авиве. До гала-концерта остается менее часа. Трансляция шоу будет вестись из студии "600 метров". Этим вечером участники презентуют композиции на белорусском, русском и английском языках. Среди финалистов представители не только отечественной, но и зарубежной эстрады. Победителю проекта достанется стилизованное евровизионное сердце и, конечно же, музыкальная путевка на конкурс. Напомним, "Евровидение-2019" в мае принимает Тель-Авив.

Треклист

1. Michael Soul - Humanize
2. ЗЕНА - Like it
3. Ева Коган - Run
4. NLGN & Mirex - Champion
5. Sebastian Roos - Never Getting Close
6. Алёна Горбачёва - Can we dream
7. Группа "PROвокация " - Running Away From The Sun
8. Группа "Аура" - Чаравала
9. NAPOLI - Let it go
10. КейСи - No Love Lost
Источник: собственная записьКачество: SATRip
Контейнер: TS/M2TS
Видео кодек: H.264
Аудио кодек: MP2
Видео: MPEG4 Video (H264) 1920x1080 (16:9) 4 900 kb/s 25fps
Аудио: MPEG Audio 192kbps 48000Hz stereo

MediaInfo

GeneralID                          : 1 (0x1)Complete name               : F:\Мои раздачи\Музыка\Евровидение 2019. Финал национального отборочного тура.tsFormat                      : MPEG-TSFile size                   : 4.07 GiBDuration                    : 1 h 48 minOverall bit rate mode       : VariableOverall bit rate            : 5 358 kb/sVideoID                          : 810 (0x32A)Menu ID                     : 1 (0x1)Format                      : AVCFormat/Info                 : Advanced Video CodecFormat profile              : High@L4Format settings             : CABAC / 4 Ref FramesFormat settings, CABAC      : YesFormat settings, ReFrames   : 4 framesCodec ID                    : 27Duration                    : 1 h 48 minBit rate                    : 4 900 kb/sWidth                       : 1 920 pixelsHeight                      : 1 080 pixelsDisplay aspect ratio        : 16:9Frame rate                  : 25.000 FPSStandard                    : ComponentColor space                 : YUVChroma subsampling          : 4:2:0Bit depth                   : 8 bitsScan type                   : InterlacedScan type, store method     : Separated fieldsScan order                  : Top Field FirstBits/(Pixel*Frame)          : 0.095Stream size                 : 3.72 GiB (91%)Color range                 : LimitedColor primaries             : BT.709Transfer characteristics    : BT.709Matrix coefficients         : BT.709AudioID                          : 820 (0x334)Menu ID                     : 1 (0x1)Format                      : MPEG AudioFormat version              : Version 1Format profile              : Layer 2Codec ID                    : 3Duration                    : 1 h 48 minBit rate mode               : ConstantBit rate                    : 192 kb/sChannel(s)                  : 2 channelsSampling rate               : 48.0 kHzFrame rate                  : 41.667 FPS (1152 SPF)Compression mode            : LossyStream size                 : 149 MiB (4%)Language                    : Russian

Скриншоты


To download the content you need:
1. Download and install torrent client [for Windows] or for mobile system
2. Click on [Download]
Attention.
If the test YOU are NOT a ROBOT - does not work, then You are using an outdated browser.
Install the current browser and click on [Download]
Security: torrent client is allowed by Kaspersky.

[asmlocator.ru].t622123.torrent 
Torrent: Registered [ 2019-03-23 09:05 ] · 1073BF5D8F70E93AE21589E28CA834AE51B65A7C

Download .torrent

Download

11 KB

Status: checked
Completed: 0 times
Size: 4.07 GB
terms.php
[Profile] [PM]
Display posts:    
Reply to topic

Current time is: 17-Jul 05:39

All times are UTC ± 0



You cannot post new topics in this forum
You cannot reply to topics in this forum
You cannot edit your posts in this forum
You cannot delete your posts in this forum
You cannot vote in polls in this forum
You cannot attach files in this forum
You can download files in this forum