Охота на пиранью (Андрей Кавун) [2006, боевик, триллер, криминал, DVDRip-AVC]

Ответить на тему
Статистика раздачи
Размер:  1,45 GB   |    Зарегистрирован:  3 года   |    Скачан:  0 раз

Полного источника не было: Никогда

 
   
 
 
Автор Сообщение

star21 ®

Пол: Женский

Стаж: 3 года

Сообщений: 552916

Откуда: Екатеринбург

Создавать темы 11-Ноя-2015 07:24

[Цитировать]

Охота на пиранью (Андрей Кавун) [2006, боевик, триллер, криминал, DVDRip-AVC] Торрент
Охота на пиранью
Формат: DVDRip-AVC, MKV, H.264, AC3
Режиссер: Андрей Кавун
Жанр: боевик, триллер, криминал
Продолжительность: 01:59:23
Год выпуска: 2006
В ролях: Владимир Машков, Евгений Миронов, Светлана Антонова, Сергей Гармаш, Андрей Мерзликин, Михаил Ефремов, Виктория Исакова, Алексей Горбунов
Описание: Под видом совместного отпуска агент спецподразделения «Пираньи» Кирилл Мазур с коллегой Ольгой направляются в сибирскую тайгу с заданием ликвидировать лабораторию химического оружия, затопленную на дне озера на территории, которая вскоре должна отойти соседнему Китаю.
Неожиданно они оказываются в мире, где законы цивилизации забыты, а смертоносное оружие захвачено бандитами под предводительством нового «хозяина тайги» Прохора, который на досуге развлекается настоящей охотой на людей.
Мазур не ожидал, что ему придется сменить привычный автомат на самодельный костяной нож, и спасать себя и напарницу, вместо того, чтобы спасать мир. Но и охотники не догадывались, что для них это сафари в северных лесах окажется не менее опасным, чем для живых мишеней.


Видео: 716x436@1020x436 (2.35:1), 25,000 fps, AVC (H.264), ,~1295kbps avg,0.166bit/pixel
Аудио: 48.0 kHz, AC3, (Front: L C R, Side: L R, LFE) , 6 ch ~448Kbps avg

Mediainfo

Общее
Уникальный идентификатор : 234957552806475107636085058391890553133 (0xB0C32DBCBA146D1CB3FB6EF8361D692D)
Полное имя : D:\Охота на пиранью.mkv
Формат : Matroska
Размер файла : 1,45 Гбайт
Продолжительность : 1 ч. 59 м.
Общий поток : 1743 Кбит/сек
Дата кодирования : UTC 2012-01-11 01:43:05
Программа кодирования : mkvmerge v4.9.1 ('Ich will') built on Jul 11 2011 23:53:15
Библиотека кодирования : libebml v1.2.1 + libmatroska v1.1.1
Видео
Идентификатор : 1
Формат : AVC
Формат/Информация : Advanced Video Codec
Профиль формата :
Параметр CABAC формата : Да
Параметр ReFrames формата : 14 кадров
Параметры GOP формата : M=5, N=6
Идентификатор кодека : V_MPEG4/ISO/AVC
Продолжительность : 1 ч. 59 м.
Битрейт : 1295 Кбит/сек
Ширина : 716 пикс.
Высота : 436 пикс.
Соотношение сторон : 2,35:1
Соотношение сторон в оригинале : 2,35:1
Частота кадров : 25,000 кадр/сек
Цветовое пространство : YUV
Подвыборка цветности : 4:2:0
Битовая глубина : 8 бит
Тип развёртки : Прогрессивная
Бит/(Пиксели*Кадры) : 0.166
Размер потока : 1,05 Гбайт (72%)
Библиотека кодирования : x264 core 116 r2074 2641b9e
Настройки программы : cabac=1 / ref=14 / deblock=1:-1:-1 / analyse=0x3:0x133 / me=umh / subme=10 / psy=1 / psy_rd=1.00:0.00 / mixed_ref=1 / me_range=24 / chroma_me=1 / trellis=2 / 8x8dct=1 / cqm=0 / deadzone=21,11 / fast_pskip=1 / chroma_qp_offset=-2 / threads=3 / sliced_threads=0 / nr=0 / decimate=1 / interlaced=0 / bluray_compat=0 / constrained_intra=0 / bframes=8 / b_pyramid=0 / b_adapt=2 / b_bias=0 / direct=3 / weightb=1 / open_gop=0 / weightp=2 / keyint=250 / keyint_min=25 / scenecut=40 / intra_refresh=0 / rc_lookahead=60 / rc=2pass / mbtree=1 / bitrate=1295 / ratetol=1.0 / qcomp=0.60 / qpmin=10 / qpmax=51 / qpstep=4 / cplxblur=20.0 / qblur=0.5 / vbv_maxrate=17500 / vbv_bufsize=14000 / nal_hrd=none / ip_ratio=1.40 / aq=1:1.00
Аудио
Идентификатор : 2
Формат : AC-3
Формат/Информация : Audio Coding 3
Расширение режима : CM (complete main)
Идентификатор кодека : A_AC3
Продолжительность : 1 ч. 59 м.
Вид битрейта : Постоянный
Битрейт : 448 Кбит/сек
Каналы : 6 каналов
Расположение каналов : Front: L C R, Side: L R, LFE
Частота : 48,0 КГц
Битовая глубина : 16 бит
Метод сжатия : С потерями
Размер потока : 383 Мбайт (26%)

Скриншоты анаморф




Для скачки контента: [Установить программу-клиент] и кликнуть по - СкачатьБезопасность: клиент проверен АВ Касперского

[asmlocator.ru].t62.torrent 
Торрент: Зарегистрирован [ 2015-11-11 07:23 ] · BAEC7F1C910B610F37B6EC385C3C3F3036948417

Скачать .torrent

Скачать

16 KB

Статус: проверено
Скачан: 0 раз
Размер: 1,45 GB
terms.php
[Профиль] [ЛС]
Показать сообщения:    
Ответить на тему

Текущее время: 18-Ноя 06:54

Часовой пояс: UTC ± 0



Вы не можете начинать темы
Вы не можете отвечать на сообщения
Вы не можете редактировать свои сообщения
Вы не можете удалять свои сообщения
Вы не можете голосовать в опросах
Вы не можете прикреплять файлы к сообщениям
Вы можете скачивать файлы