Дерсу Узала (Акира Куросава / Akira Kurosawa) [1975, СССР, Япония, драма, приключения, биография, BDRip]

Reply to topic
DL-List and Torrent activity
Size:  2.18 GB   |    Registered:  2 months 8 days   |    Completed:  0 times

Seeder not seen: Never

 
   
 
 
Author Message

star21 ®

Gender: Female

Longevity: 3 years 6 months

Posts: 552208

Location: Екатеринбург

Post 14-Mar-2019 20:10

[Quote]

Дерсу Узала«Kurosawa'a Academy Award Winning Masterpiece» Страна: СССР, Япония
Жанр: Драма, Приключения, Биография
Год выхода: 1975
Продолжительность: 02:21:45Оригинальная аудиодорожка: Русская
Субтитры: НетРежиссер: Акира Куросава / Akira KurosawaВ ролях: Максим Мунзук, Юрий Соломин, Владимир Кремена, Александр Пятков, Светлана Данильченко, Дмитрий Коршиков, Суйменкул Чокморов, Михаил Бычков, В. Ласточкин, Станислав МарьинО фильме: Фильм рассказывает об увлекательных путешествиях замечательного русского ученого и писателя В. Арсеньева. В центре повествования образ таежного охотника Дерсу Узала — мудрого, доброго и отважного человека, связанного с Арсеньевым искренней дружбой.[imdb]http://www.imdb.com/title/tt0071411[/imdb] Раздача от:
Автор рипа: HRIMEСэмпл: скачатьФормат: AVI
Качество: BDRip (источник: Blu-ray disc - pirs18)Кодек: XviD, build 67 codec
Видео: 704 x 304; 24.000 fps; 1743 kbps; 0.339 bit/pixel
Аудио #1: RUS AC3 Dolby Digital; 448 Kbps; 6 channels; 48 KHz
Размер: 2233 Mb (1/2 DVD)

Скриншоты


Media Info

Код:
General
Complete name : Dersu.Uzala.1975.RUS.BDRip.XviD.AC3.-HQ-ViDEO.avi
Format : AVI
Format/Info : Audio Video Interleave
Format profile : OpenDML
File size : 2.18 GiB
Duration : 2h 21mn
Overall bit rate : 2 203 Kbps
Movie name : Dersu Uzala (1975) by Akira Kurosawa
Director : HRIME
Writing application : VirtualDubMod 1.5.10.2 (build 2542/release)
Original source form/Name : Movie
Copyright : HQ-ViDEO
Comment : 21.12.2017Video
ID : 0
Format : MPEG-4 Visual
Format profile : Advanced Simple@L5
Format settings, BVOP : 1
Format settings, QPel : No
Format settings, GMC : No warppoints
Format settings, Matrix : Custom
Codec ID : XVID
Codec ID/Hint : XviD
Duration : 2h 21mn
Bit rate : 1 743 Kbps
Width : 704 pixels
Height : 304 pixels
Display aspect ratio : 2.35:1
Frame rate : 24.000 fps
Color space : YUV
Chroma subsampling : 4:2:0
Bit depth : 8 bits
Scan type : Progressive
Compression mode : Lossy
Bits/(Pixel*Frame) : 0.339
Stream size : 1.73 GiB (79%)
Writing library : XviD 67Audio
ID : 1
Format : AC-3
Format/Info : Audio Coding 3
Mode extension : CM (complete main)
Codec ID : 2000
Duration : 2h 21mn
Bit rate mode : Constant
Bit rate : 448 Kbps
Channel(s) : 6 channels
Channel positions : Front: L C R, Side: L R, LFE
Sampling rate : 48.0 KHz
Bit depth : 16 bits
Compression mode : Lossy
Stream size : 454 MiB (20%)
Alignment : Split accross interleaves
Interleave, duration : 42 ms (1.00 video frame)
Interleave, preload duration : 500 ms

To download the content you need:
1. Download and install torrent client [for Windows] or for mobile system
2. Click on [Download]
Attention.
If the test YOU are NOT a ROBOT - does not work, then You are using an outdated browser.
Install the current browser and click on [Download]
Security: torrent client is allowed by Kaspersky.

[asmlocator.ru].t618997.torrent 
Torrent: Registered [ 2019-03-14 20:10 ] · BB28BD17A34EE2CB0DB493B6085BD5E22A5CA9D3

Download .torrent

Download

11 KB

Status: checked
Completed: 0 times
Size: 2.18 GB
terms.php
[Profile] [PM]
Display posts:    
Reply to topic

Current time is: 23-May 18:10

All times are UTC ± 0



You cannot post new topics in this forum
You cannot reply to topics in this forum
You cannot edit your posts in this forum
You cannot delete your posts in this forum
You cannot vote in polls in this forum
You cannot attach files in this forum
You can download files in this forum