Тот ещё Карлосон! (Сарик Андреасян) [2012, Россия, фэнтези, комедия, семейный, DVD9] Original Rus

Reply to topic
DL-List and Torrent activity
Size:  4.44 GB   |    Registered:  2 months 10 days   |    Completed:  0 times

Seeder not seen: Never

 
   
 
 
Author Message

star21 ®

Gender: Female

Longevity: 3 years 6 months

Posts: 552208

Location: Екатеринбург

Post 14-Mar-2019 11:50

[Quote]

Тот ещё Карлосон! Страна: Россия
Студия: Enjoy Movies
Жанр: фэнтези, комедия, семейный
Год выпуска: 2012
Продолжительность: 01:20:29Перевод: Не требуется
Субтитры: нет
Оригинальная аудиодорожка: русскаяРежиссер: Сарик АндреасянВ ролях: Михаил Галустян, Федя Смирнов, Олег Табаков, Нонна Гришаева, Игорь Верник, Мария Сёмкина, Гоша Куценко, Александр Олешко, Семен Фурман, Андрей ФедорцовОписание: Герой Михаила Галустяна, прозванного в нашем мире за сходство КарлОсоном, живет в волшебном и красочном мире Метриков — пухлых большеухих летающих человечков метрового роста, миссия которых — помогать ребятишкам, которым взрослые, скорее, создают проблемы, нежели решают их. Метрики могут показываться детям, но вынуждены тщательно скрывать факт своего существования от скучных взрослых.
Наш герой — беззаботный, озорной, в меру эгоистичный сладкоежка, частенько сбегающий от соплеменников в мир людей, чтобы пошалить и порезвиться. Ведь в душе он сам еще ребенок — ему только-только исполнилось 300 лет.
Однажды старейшина метриков поручает нашему герою ответственное задание — помочь одинокому 7-летнему Малышу, чьи родители оказались на грани развода. Малыш — добрый мальчик, но у него почти нет друзей, зато есть всевозможные электронные игрушки и устройства, покупаемые родителями по первому же его слову. Появление такого особенного, самого-пресамого лучшего друга на свете меняет жизнь Малыша.
Но никто не верит Малышу, что его друг — это не просто плод воображения, а самый что ни на есть настоящий пухлый человечек из волшебного мира метриков. Ситуация становится критической, когда Малыша ведут к школьному психологу, приставляют к нему няню, а одноклассники начинают издеваться над его «выдумками». Тут-то его волшебный друг и оказывается перед выбором: доказать окружению Малыша, что он существует, рискуя быть серьезно наказанным в своем мире, или хладнокровно наблюдать за ситуацией со стороны? Познает ли наш обаятельный беззаботный человечек такие ценности, как настоящая дружба, преданность и бескорыстность?Меню: есть, анимированноеСэмплТип релиза: DVD9
Контейнер: DVD-VideoВидео: PAL 16:9 (720x576) MPEG Video, 25,000 кадр/сек, 6147 Кбит/сек
Аудио: Russian (Dolby AC-3, 6 ch) 448 Кбит/сек, 48.0 КГц
Аудио 2: Russian (DTS, 5 ch) 768 Кбит/сек, 48.0 КГц
Аудио 3: Russian (Dolby AC-3, 2 ch) 192 Кбит/сек, 48.0 КГц

DVDInfo

Title: CARLOSON
Disk size: 4.44 Gb ( 4 650 870,00 KBytes )
DVD Type: DVD-9
Enabled regions: 1,2,3,4,5,6,7,8VTS_01:
Title Play Length: 00:00:25
Video: PAL 4:3 (720x576) VBR
Audio (3):
Russian (Dolby AC3, 6 ch)
English (Dolby AC3, 6 ch)
English (Dolby AC3, 6 ch)
Subtitles (0)VTS_02:
Title Play Length: 01:20:28
Video: PAL 16:9 (720x576) VBR
Auto Pan&Scan, Auto Letterboxed
Audio (3):
Russian (Dolby AC3, 6 ch)
Russian (DTS, 5 ch)
Russian (Dolby AC3, 2 ch)
Subtitles (0)* Menus Information *VIDEO_TS Menu
Video:
PAL 4:3 (720x576) VBR
Audio (0)
English Language Unit :
Title MenuVTS_01 Menu
Video:
PAL 4:3 (720x576) VBR
Audio (1):
Not specified (Dolby AC3, 2 ch)
English Language Unit :
Root Menu
Chapter (PTT) MenuVTS_02 Menu
Video:
PAL 4:3 (720x576) VBR
Audio (0)
English Language Unit :
Root Menu
Audio Menu
Chapter (PTT) Menu

MediaInfo

Общее
Полное имя : CARLOSON\VIDEO_TS\VTS_02_1.VOB
Формат : MPEG-PS
Размер файла : 1024 Мбайт
Продолжительность : 18 м. 36 с.
Режим общего битрейта : Переменный
Общий поток : 7695 Кбит/секВидео
Идентификатор : 224 (0xE0)
Формат : MPEG Video
Версия формата : Version 2
Профиль формата : Main@Main
Настройки формата : CustomMatrix / BVOP
Параметр BVOP формата : Да
Параметр матрицы формата : Выборочная
Параметр GOP формата : Variable
Продолжительность : 18 м. 36 с.
Вид битрейта : Переменный
Битрейт : 6147 Кбит/сек
Максимальный битрейт : 8000 Кбит/сек
Ширина : 720 пикселей
Высота : 576 пикселей
Соотношение сторон : 16:9
Частота кадров : 25,000 кадров/сек
Стандарт вещания : PAL
Цветовое пространство : YUV
Субдискретизация насыщенности : 4:2:0
Битовая глубина : 8 бит
Тип развёртки : Прогрессивная
Метод сжатия : С потерями
Бит/(Пиксели*Кадры) : 0.593
Временной код первого кадра : 01:00:00:00
Оригинал временного кода : Group of pictures header
GOP, открыто/закрыто : Открыто
GOP, открыто/закрыто на первом кадре : Закрыто
Размер потока : 818 Мбайт (80%)Аудио #1
Идентификатор : 189 (0xBD)-128 (0x80)
Формат : AC-3
Формат/Информация : Audio Coding 3
Режим смешивания : DVD-Video
Продолжительность : 18 м. 35 с.
Вид битрейта : Постоянный
Битрейт : 448 Кбит/сек
Каналы : 6 каналов
Расположение каналов : Front: L C R, Side: L R, LFE
Частота : 48,0 КГц
Частота кадров : 31,250 кадров/сек (1536 SPF)
Битовая глубина : 16 бит
Метод сжатия : С потерями
Размер потока : 59,6 Мбайт (6%)
ServiceKind/String : Complete MainАудио #2
Идентификатор : 189 (0xBD)-130 (0x82)
Формат : AC-3
Формат/Информация : Audio Coding 3
Режим смешивания : DVD-Video
Продолжительность : 18 м. 35 с.
Вид битрейта : Постоянный
Битрейт : 192 Кбит/сек
Каналы : 2 канала
Расположение каналов : Front: L R
Частота : 48,0 КГц
Частота кадров : 31,250 кадров/сек (1536 SPF)
Битовая глубина : 16 бит
Метод сжатия : С потерями
Размер потока : 25,5 Мбайт (2%)
ServiceKind/String : Complete MainАудио #3
Идентификатор : 189 (0xBD)-137 (0x89)
Формат : DTS
Формат/Информация : Digital Theater Systems
Режим смешивания : DVD-Video
Продолжительность : 18 м. 35 с.
Вид битрейта : Постоянный
Битрейт : 755 Кбит/сек
Каналы : 6 каналов
Расположение каналов : Front: L C R, Side: L R, LFE
Частота : 48,0 КГц
Частота кадров : 93,750 кадра/сек (512 SPF)
Битовая глубина : 24 бит
Метод сжатия : С потерями
Размер потока : 100 Мбайт (10%)

Скриншоты меню

Скриншоты


To download the content you need:
1. Download and install torrent client [for Windows] or for mobile system
2. Click on [Download]
Attention.
If the test YOU are NOT a ROBOT - does not work, then You are using an outdated browser.
Install the current browser and click on [Download]
Security: torrent client is allowed by Kaspersky.

[asmlocator.ru].t618958.torrent 
Torrent: Registered [ 2019-03-14 11:50 ] · CEDC696F792451B41F1151DA299D62EB61C72148

Download .torrent

Download

12 KB

Status: checked
Completed: 0 times
Size: 4.44 GB
terms.php
[Profile] [PM]
Display posts:    
Reply to topic

Current time is: 24-May 14:12

All times are UTC ± 0



You cannot post new topics in this forum
You cannot reply to topics in this forum
You cannot edit your posts in this forum
You cannot delete your posts in this forum
You cannot vote in polls in this forum
You cannot attach files in this forum
You can download files in this forum