Юная Вакаба / Wakaba Girl [TV+Special] [13+1 из 13+1] [Без хардсаба] [RUS(ext), JAP+SUB] [2015, комедия, повседневность, BDRip] [1080p]

Reply to topic
DL-List and Torrent activity
Size:  5.26 GB   |    Registered:  2 months 9 days   |    Completed:  0 times

Seeder not seen: Never

 
   
 
 
Author Message

star21 ®

Gender: Female

Longevity: 3 years 6 months

Posts: 552208

Location: Екатеринбург

Post 14-Mar-2019 11:50

[Quote]

Страна: Япония
Год выпуска: 2015
Жанр: комедия, повседневность
Тип: TV+Special | Продолжительность: 13 эп., ~8 мин. эпизод + Спешал ~ 8 мин.
Выпуск: c 03.07.2015 по 25.09.2015
Рейтинг: PG-13Озвучка:
  • #1 Двухголосая (жен/жен) от Esther & Demetra [AniDub] [1-13 + SP] (семпл)
    • #2 Двухголосая (жен/жен) от Sora & Shiro [ANIvoice] [1-13] (семпл)
      Перевод:
    • Субтитры от [Wakaba-chan & tengri] (полные/надписи) [1-13] | .ass, внешние;
    • Субтитры от [Krasialex] (полные/надписи) [SP] | .ass, внешние;
      Тайминг субтитров под BDRip: SkycleanРежиссер: Ватанабэ Масахару
      Студия: Описание: Эта история повествует о деятельности Вакабы Кохаши, «слегка сумбурной супер-дочери», родившейся в обеспеченной семье, и ее друзей. Вакаба — элегантная богатая девочка, восхищающаяся модной субкультурой гяру. Кроме Вакабы, в истории присутствуют еще несколько девочек «высшего света»: чистокровная, невинная и будто бы из сказки Моэко, Мао — капризный персонаж, который ведет себя, как ей вразумится, и Нао, некогда бывшая прекрасной спортсменкой, теперь обожающая BL (яой) девочка.Доп. информация: World-art | AniDBКачество: BDRip | Автор рипа: [VCB-Studio]
      Тип релиза: Без хардсаба, без линковки
      Формат видео: MKV
      Видео: x265; HEVC; 1920x1080; 4527 Кбит/сек; 23,976 кадра/сек; 10bit
      Аудио: JAP(int); FLAC; 1461 Кбит/сек; 48,0 КГц; 2 канала; 24bit
      Аудио 1: RUS(ext); AC-3, 48.0 КГц, 192 Кбит/сек, 2 канала - Озвучку предоставил - DS29028888
      Аудио 2: RUS(ext); AC-3, 48.0 КГц, 192 Кбит/сек, 2 канала

      Подробные тех. данные

      MediaInfo

      ОбщееУникальный идентификатор                 : 249626948257714228272013969236226801377 (0xBBCC66C5EC16FFF5BC0A2C6F55D4FEE1)Полное имя                               : D:\na\[VCB-Studio] Wakaba Girl [Ma10p_1080p]\[VCB-Studio] Wakaba Girl [01][Ma10p_1080p][x265_flac].mkvФормат                                   : MatroskaВерсия формата                           : Version 4Размер файла                             : 339 МбайтПродолжительность                        : 7 м. 54 с.Режим общего битрейта                    : ПеременныйОбщий поток                              : 5990 Кбит/секДата кодирования                         : UTC 2015-12-13 06:28:47Программа кодирования                    : mkvmerge v7.9.0 ('Birds') 64bitБиблиотека кодирования                   : libebml v1.3.1 + libmatroska v1.4.2ВидеоИдентификатор                            : 1Формат                                   : HEVCФормат/Информация                        : High Efficiency Video CodingПрофиль формата                          : Main 10@L5@MainИдентификатор кодека                     : V_MPEGH/ISO/HEVCПродолжительность                        : 7 м. 54 с.Битрейт                                  : 4527 Кбит/секШирина                                   : 1920 пикселейВысота                                   : 1080 пикселейСоотношение сторон                       : 16:9Режим частоты кадров                     : ПостоянныйЧастота кадров                           : 23,976 (24000/1001) кадра/секЦветовое пространство                    : YUVСубдискретизация насыщенности            : 4:2:0Битовая глубина                          : 10 битБит/(Пиксели*Кадры)                      : 0.091Размер потока                            : 256 Мбайт (76%)Библиотека кодирования                   : x265 1.8+111-de035d52d046:[Windows][MSVC 1900][64 bit] 10bitНастройки программы                      : wpp / ctu=32 / min-cu-size=8 / max-tu-size=16 / tu-intra-depth=3 / tu-inter-depth=3 / me=3 / subme=5 / merange=44 / no-rect / no-amp / max-merge=4 / temporal-mvp / no-early-skip / rdpenalty=2 / no-tskip / no-tskip-fast / no-strong-intra-smoothing / no-lossless / no-cu-lossless / no-constrained-intra / no-fast-intra / open-gop / no-temporal-layers / interlace=0 / keyint=360 / min-keyint=1 / scenecut=40 / rc-lookahead=80 / lookahead-slices=0 / bframes=10 / bframe-bias=0 / b-adapt=2 / ref=5 / limit-refs=0 / no-limit-modes / weightp / weightb / aq-mode=1 / qg-size=32 / aq-strength=1.10 / cbqpoffs=0 / crqpoffs=0 / rd=5 / psy-rd=0.80 / rdoq-level=1 / psy-rdoq=4.00 / no-rd-refine / signhide / deblock=-2:-2 / no-sao / no-sao-non-deblock / b-pyramid / cutree / no-intra-refresh / rc=crf / crf=15.5 / qcomp=0.80 / qpmin=0 / qpmax=51 / qpstep=4 / ipratio=1.40 / pbratio=1.30Default                                  : ДаForced                                   : НетАудиоИдентификатор                            : 2Формат                                   : FLACФормат/Информация                        : Free Lossless Audio CodecИдентификатор кодека                     : A_FLACПродолжительность                        : 7 м. 54 с.Вид битрейта                             : ПеременныйБитрейт                                  : 1461 Кбит/секКаналы                                   : 2 каналаChannel layout                           : L RЧастота                                  : 48,0 КГцЧастота кадров                           : 11,723 кадров/сек (4095 SPF)Битовая глубина                          : 24 битМетод сжатия                             : Без потерьРазмер потока                            : 82,7 Мбайт (24%)Библиотека кодирования                   : libFLAC 1.3.1 (UTC 2014-11-25)Язык                                     : ChineseDefault                                  : ДаForced                                   : Нет

      Список эпизодов

      1. My Dream Is to Be a High School Girl
      2. In a D-Cup, Please
      3. The Road to Becoming a Gyaru Is Long
      4. So This Is a Knife
      5. Rich Girls Are Not Fair
      6. The Area of Fabric Is Too Small
      7. A Sniper, by Any Chance?
      8. Bang Bang Bang
      9. Wakaba-chan Fever
      10. That`s Impossible
      11. A Machine for Generating Lazy People
      12. Stop with Those Eyes
      13. Regular Girl
      SP. I Want To Go to the Hot Springs (ака эпизод 14)

      Скриншоты


  • To download the content you need:
    1. Download and install torrent client [for Windows] or for mobile system
    2. Click on [Download]
    Attention.
    If the test YOU are NOT a ROBOT - does not work, then You are using an outdated browser.
    Install the current browser and click on [Download]
    Security: torrent client is allowed by Kaspersky.

    [asmlocator.ru].t618956.torrent 
    Torrent: Registered [ 2019-03-14 11:50 ] · 10C1B6AFA85CFC5BDB73E77F015FCA6D948F7828

    Download .torrent

    Download

    24 KB

    Status: checked
    Completed: 0 times
    Size: 5.26 GB
    terms.php
    [Profile] [PM]
    Display posts:    
    Reply to topic

    Current time is: 23-May 18:10

    All times are UTC ± 0



    You cannot post new topics in this forum
    You cannot reply to topics in this forum
    You cannot edit your posts in this forum
    You cannot delete your posts in this forum
    You cannot vote in polls in this forum
    You cannot attach files in this forum
    You can download files in this forum