Три вопроса / The Three Questions (Пьер Век / Pierre Veck) [1984, Франция, мультфильм, экранизация, TVRip] DVO

Reply to topic
DL-List and Torrent activity
Size:  227 MB   |    Registered:  2 months 9 days   |    Completed:  0 times

Seeder not seen: Never

 
   
 
 
Author Message

star21 ®

Gender: Female

Longevity: 3 years 6 months

Posts: 552208

Location: Екатеринбург

Post 14-Mar-2019 07:30

[Quote]

Три вопроса / The Three QuestionsСтрана: Франция
Жанр: мультфильм, экранизация
Продолжительность: 00:13:50
Год выпуска: 1984
Перевод: Профессиональный (двухголосый закадровый)
Русские субтитры: нетРежиссёр: Пьер Век / Pierre VeckОписание: По произведению Льва Толстого.
Притча о короле, которого интересовали ответы на три вопроса. Не удовлетворившись ответами своих советников, король переоделся бедняком и отправился за ответами к народу...Доп. информация: Иcходник от Nekontroliruemij_devilКачество: TVRip
Формат: AVI
Видео: 2095 kbps, 640х496 (1.290), 25.000 fps, MPEG-4 Visual (XviD)
Аудио: 192 kbps, 44.1 kHz, 2 channels, MPEG Audio (MP3)
Субтитры: отсутствуют

Подробные технические данные

GeneralComplete name                            : Three questions (1984).aviFormat                                   : AVIFormat/Info                              : Audio Video InterleaveFile size                                : 227 MiBDuration                                 : 13mn 50sOverall bit rate                         : 2 297 KbpsWriting application                      : VirtualDubMod 1.5.10.2 (build 2540/release)Writing library                          : VirtualDub build 35491/releaseVideoID                                       : 0Format                                   : MPEG-4 VisualFormat profile                           : Advanced Simple@L5Format settings, BVOP                    : 2Format settings, QPel                    : NoFormat settings, GMC                     : No warppointsFormat settings, Matrix                  : Default (H.263)Codec ID                                 : XVIDCodec ID/Hint                            : XviDDuration                                 : 13mn 50sBit rate                                 : 2 095 KbpsWidth                                    : 640 pixelsHeight                                   : 496 pixelsDisplay aspect ratio                     : 1.290Frame rate                               : 25.000 fpsColor space                              : YUVChroma subsampling                       : 4:2:0Bit depth                                : 8 bitsScan type                                : ProgressiveCompression mode                         : LossyBits/(Pixel*Frame)                       : 0.264Stream size                              : 207 MiB (91%)Writing library                          : XviD 73AudioID                                       : 1Format                                   : MPEG AudioFormat version                           : Version 1Format profile                           : Layer 3Codec ID                                 : 55Codec ID/Hint                            : MP3Duration                                 : 13mn 50sBit rate mode                            : ConstantBit rate                                 : 192 KbpsChannel(s)                               : 2 channelsSampling rate                            : 44.1 KHzCompression mode                         : LossyStream size                              : 19.0 MiB (8%)Alignment                                : Split accross interleavesInterleave, duration                     : 40 ms (1.00 video frame)Interleave, preload duration             : 500 ms

Скриншоты


To download the content you need:
1. Download and install torrent client [for Windows] or for mobile system
2. Click on [Download]
Attention.
If the test YOU are NOT a ROBOT - does not work, then You are using an outdated browser.
Install the current browser and click on [Download]
Security: torrent client is allowed by Kaspersky.

[asmlocator.ru].t618890.torrent 
Torrent: Registered [ 2019-03-14 07:30 ] · B6F68B06C4867911CA55C5221D5875A45036CED9

Download .torrent

Download

18 KB

Status: checked
Completed: 0 times
Size: 227 MB
terms.php
[Profile] [PM]
Display posts:    
Reply to topic

Current time is: 23-May 18:12

All times are UTC ± 0



You cannot post new topics in this forum
You cannot reply to topics in this forum
You cannot edit your posts in this forum
You cannot delete your posts in this forum
You cannot vote in polls in this forum
You cannot attach files in this forum
You can download files in this forum