Короткий фильм о любви / Krótki film o milosci (Кшиштоф Кесьлёвский / Krzysztof Kieslowski) [1988, Польша, Драма, Мелодрама, DVD5 (Custom)] Dub(Мосфильм) + Mvo(Кармен Видео) + Sub Eng, Rus + Original Pol / Criterion Collection#837

Ответить на тему
Статистика раздачи
Размер:  4.16 GB   |    Зарегистрирован:  1 год 2 месяца   |    Скачан:  0 раз

Полного источника не было: Никогда

 
   
 
 
Автор Сообщение

star21 ®

Пол: Женский

Стаж: 4 года 6 месяцев

Сообщений: 551945

Откуда: Екатеринбург

Создавать темы 13-Мар-2019 18:30

[Цитировать]

Короткий фильм о любви / Krótki film o milosci / A Short Film About Love / Criterion Collection#837 Страна:ПольшаСтудия:Zespol Filmowy "Tor".Жанр:Драма, МелодрамаГод выпуска:1988
Продолжительность:01:28:01Производство:The Criterion Collection #837Перевод 1:Профессиональный (Полное дублирование) МосфильмПеревод 2:Профессиональный (Многоголосый закадровый) Кармен ВидеоСубтитры:Английские, РусскиеПремьера (мир):21.10.1988
Режиссер:Кшиштоф Кесьлёвский / Krzysztof KieslowskiВ ролях:Гражина Шаполовская (польск. Grażyna Szapołowska) — Магда
Олаф Любашенко (Olaf Lubaszenko) — Томек
Стефания Ивиньска (Stefania Iwińska) — крёстная
Пётр Махалица (Piotr Machalica) — Роман
Артур Барцись (Artur Barciś)
Станислав Гавлик (Stanisław Gawlik) — почтальон
Томаш Градовский (Tomasz Gradowski)
Рафаль Имбро (Rafal Imbro) — любовник Магды
Ян Пехоциньский (Jan Piechociński) — любовник Магды
Кшиштоф Коперский (Krzysztof Koperski)
Ханна Хойнацка (Hanna Chojnacka) — Мирослава
Ярослава Михалевска (Jaroslawa Michalewska)
Малгожата Рожнятовска (Małgorzata Rożniatowska) — заведующая почтой
Анна Горностай (Anna Gornostaj) — медсестра
Эмилия Жулковска (Emilia Ziólkowska)
Описание:19-летний Томек — вуайерист. В свободное от работы на почте время он подглядывает за красоткой напротив Магдой — сперва через бинокль, который завещал ему уехавший друг (тоже вуайерист), а теперь более основательно — через подзорную трубу. Поставленный еще приятелем диагноз: «КПЧД» (красивая попа, часто дает) — в результате наблюдений остается без изменений.
Однако чувства Томека к Магде носят хотя и патологически влюбленный, но при этом платонический характер. Узнав о том, что она находится под наблюдением юноши, Магда сама начинает испытывать к Томеку чувственный интерес, что неожиданно для всех приводит к драматическим последствиям…
[imdb]http://www.imdb.com/title/tt0095467[/imdb] Доп. информация:Исходник найден в сети.Огромное Спасибо Всем, без чьей помощи этот релиз не состоялся бы!Сценарий:Кшиштоф Кесьлёвский, Кшиштоф Песевич Продюсер:Рышард ЧутковскийОператор:Витольд АдамекКомпозитор:Збигнев ПрайснерХудожник:Магдалена Дипон, Галина Добровольская, Ханна ЧвиклоМонтаж:Ева Смол

Знаете ли вы, что

Награды и номинации



Рецензия

Софт

PgcDemux 1.2.0.5 -> разделение компонентов диска на файлы.
BeHappy - AC3 -> Wav.
Sound Forge pro 10 -> синхронизация звука.
Minnetonka SurCode перекодирование Wav -> AC3.
Subtitle Workshop, MaestroSBT, SubtitleCreator, DVD SubEdit (субтитры).
MuxMan DVD authoring Professional -> мультиплексирование и авторинг.
DVDRemake Pro 3.6.4 -> реавторинг DVD.
DVD Shrink 3.2 -> Сэмпл.

Бонусы:

--Трейлер
Меню:Английский, статичное, озвученное.Семпл:https://www.sendspace.com/file/df5v15Тип релиза:DVD5 (Custom)
Контейнер:DVD-Video
Видео:NTSC 16:9 (720x480) VBR, Auto Letterboxed, 5686 Кбит/сек, 23,976 (24000/1001) кадра/сек Аудио 1:Русский:AC3, 2 ch, 48.0 KHz, 192 Кбит/сек /Профессиональный (Полное дублирование) МосфильмАудио 2:Русский:AC3, 1 ch, 48.0 KHz, 192 Кбит/сек / Профессиональный (Многоголосый закадровый) Кармен ВидеоАудио 3:Польский:AC3, 1 ch, 48.0 KHz, 384 Кбит/сек / ОригиналФормат субтитров:prerendered (DVD/IDX+SUB)

Dvd Info

Title: A Short Film About Love DVD-5_Custom_Criterion#837
Size: 4.16 Gb ( 4 358 784,00 KBytes ) - DVD-5
Enabled regions: 1, 2, 3, 4, 5, 6, 7, 8VTS_01 :
Play Length: 00:00:00
Video: NTSC 16:9 (720x480) VBR, Auto LetterboxedVTS_02 :
Play Length: 00:00:00
Video: NTSC 16:9 (720x480) VBR, Auto LetterboxedVTS_03 :
Play Length: 01:28:01
Video: NTSC 16:9 (720x480) VBR, Auto Letterboxed
Audio:
Russian (Dolby AC3, 2 ch)
Russian (Dolby AC3, 1 ch)
Polish (Dolby AC3, 1 ch)
Subtitles:
English
RussianVTS_04 :
Play Length: 00:00:20
Video: NTSC 16:9 (720x480) VBR, Auto Pan&ScanVTS_05 :
Play Length: 00:04:54
Video: NTSC 16:9 (720x480) VBR, Auto Letterboxed
Audio:
Polish (Dolby AC3, 1 ch)
Subtitles:
EnglishVTS_06 :
Play Length: 00:00:05
Video: NTSC 16:9 (720x480) VBR, Auto Letterboxed
Audio:
Polish (Dolby AC3, 1 ch)
Subtitles:
EnglishVTS_07 :
Play Length: 00:00:00
Video: NTSC 16:9 (720x480) VBR, Auto Letterboxed

Mediainfo

Общее
Полное имя : F:\A Short Film About Love DVD-5_Custom_Criterion#837\VIDEO_TS\VTS_03_2.VOB
Формат : MPEG-PS
Размер файла : 1024 Мбайт
Продолжительность : 21 м. 44 с.
Режим общего битрейта : Переменный
Общий поток : 6585 Кбит/секВидео
Идентификатор : 224 (0xE0)
Формат : MPEG Video
Версия формата : Version 2
Профиль формата : Main@Main
Настройки формата : CustomMatrix / BVOP
Параметр BVOP формата : Да
Параметр матрицы формата : Выборочная
Параметр GOP формата : Variable
Продолжительность : 21 м. 44 с.
Вид битрейта : Переменный
Битрейт : 5686 Кбит/сек
Максимальный битрейт : 8600 Кбит/сек
Ширина : 720 пикселей
Высота : 480 пикселей
Соотношение сторон : 16:9
Частота кадров : 23,976 (24000/1001) кадра/сек
Цветовое пространство : YUV
Субдискретизация насыщенности : 4:2:0
Битовая глубина : 8 бит
Тип развёртки : Прогрессивная
Порядок развёртки : 2:3 Pulldown
Метод сжатия : С потерями
Бит/(Пиксели*Кадры) : 0.686
Временной код первого кадра : 01:22:20:00
Оригинал временного кода : Group of pictures header
GOP, открыто/закрыто : Открыто
Размер потока : 884 Мбайт (86%)Аудио #1
Идентификатор : 189 (0xBD)-128 (0x80)
Формат : AC-3
Формат/Информация : Audio Coding 3
Режим смешивания : DVD-Video
Продолжительность : 21 м. 44 с.
Вид битрейта : Постоянный
Битрейт : 192 Кбит/сек
Каналы : 2 канала
Расположение каналов : Front: L R
Частота : 48,0 КГц
Частота кадров : 31,250 кадров/сек (1536 SPF)
Битовая глубина : 16 бит
Метод сжатия : С потерями
Задержка видео : -435 мс.
Размер потока : 29,9 Мбайт (3%)
ServiceKind/String : Complete MainАудио #2
Идентификатор : 189 (0xBD)-129 (0x81)
Формат : AC-3
Формат/Информация : Audio Coding 3
Режим смешивания : DVD-Video
Продолжительность : 21 м. 44 с.
Вид битрейта : Постоянный
Битрейт : 192 Кбит/сек
Каналы : 1 канал
Расположение каналов : Front: C
Частота : 48,0 КГц
Частота кадров : 31,250 кадров/сек (1536 SPF)
Битовая глубина : 16 бит
Метод сжатия : С потерями
Задержка видео : -435 мс.
Размер потока : 29,9 Мбайт (3%)
ServiceKind/String : Complete MainАудио #3
Идентификатор : 189 (0xBD)-130 (0x82)
Формат : AC-3
Формат/Информация : Audio Coding 3
Режим смешивания : DVD-Video
Продолжительность : 21 м. 44 с.
Вид битрейта : Постоянный
Битрейт : 384 Кбит/сек
Каналы : 1 канал
Расположение каналов : Front: C
Частота : 48,0 КГц
Частота кадров : 31,250 кадров/сек (1536 SPF)
Битовая глубина : 16 бит
Метод сжатия : С потерями
Задержка видео : -531 мс.
Размер потока : 59,7 Мбайт (6%)
ServiceKind/String : Complete MainТекст #1
Идентификатор : 189 (0xBD)-32 (0x20)
Формат : RLE
Формат/Информация : Run-length encoding
Режим смешивания : DVD-VideoТекст #2
Идентификатор : 189 (0xBD)-33 (0x21)
Формат : RLE
Формат/Информация : Run-length encoding
Режим смешивания : DVD-VideoТекст #3
Идентификатор : 189 (0xBD)-34 (0x22)
Формат : RLE
Формат/Информация : Run-length encoding
Режим смешивания : DVD-Video

Скриншоты меню

Скриншоты фильма

Скриншоты доп. материалов

Уважаемые пользователи!Найдите пару минут поблагодарить релизера и высказаться в топике раздачи.Ваше мнение - бальзам для раздающего и пища для ума остальным пользователям.Мои раздачи

Чтобы скачать этот контент, Вам необходимо:
1. Скачать и установить торрент-клиент [клик для Windows], (для мобильного найдите на Play Маркет).
2. Кликнуть по [Скачать]


Внимание.
Если проверка ВЫ НЕ РОБОТ - не работает, значит Вы используете устаревший браузер.
Установите актуальный браузер и повторно кликните по [Скачать]

Запрещён Яндекс браузер. Загрузка файлов им является ошибочной.
Безопасность: торрент-клиент разрешён АВ Касперского.

[asmlocator.ru].t618600.torrent 
Торрент: Зарегистрирован [ 2019-03-13 18:30 ] · 5DB7A9D105933964B52CBE898DC248EC65800035

Скачать .torrent

Скачать

23 KB

Статус: проверено
Скачан: 0 раз
Размер: 4.16 GB
terms.php
[Профиль] [ЛС]
Показать сообщения:    
Ответить на тему

Текущее время: 31-Май 03:14

Часовой пояс: UTC ± 0



Вы не можете начинать темы
Вы не можете отвечать на сообщения
Вы не можете редактировать свои сообщения
Вы не можете удалять свои сообщения
Вы не можете голосовать в опросах
Вы не можете прикреплять файлы к сообщениям
Вы можете скачивать файлы
Верим фактам, а не вранью Путина! Факт, что Правительство ведёт Россию к истреблению.
Так как численность населения падает, даже не смотря на приток эмигрантов!
Русская нация вымирает и вырождается, смешиваясь с эмигрантами!
Факт, что военных и граждан предприятий заставляют голосовать за партию Единая Россия и Путина
ПОД СТРАХОМ УВОЛЬНЕНИЯ!
Нам не нужно Правительство, блокирующее личную жизнь, интернет, нарушающее сохранность данных.
Все эти действия финансируются за счёт народа!