Покемон: Я Выбираю Тебя (Фильм 20) / Pokemon the Movie: I Choose You [Movie] [Без хардсаба] [RUS(int), ENG, SUB] [2017, детский, комедия, приключения, фэнтези, BDRip] [720p] [Американская версия]

Ответить на тему
Статистика раздачи
Размер:  4,92 GB   |    Зарегистрирован:  6 месяцев 5 дней   |    Скачан:  0 раз

Полного источника не было: Никогда

 
   
 
 
Автор Сообщение

star21 ®

Пол: Женский

Стаж: 3 года 10 месяцев

Сообщений: 551989

Откуда: Екатеринбург

Создавать темы 12-Мар-2019 23:05

[Цитировать]

Покемон Фильм 20: Я Выбираю Тебя!
Pokemon The Movie 20: I Choose You!
Страна: Япония / США
Год выпуска: 6 июля 2017 г.
Жанр: детский, комедия, приключения, фэнтези.
Тип: Movie
Продолжительность: 96 мин
Режиссер: Кунихико Юяма
Студия: OLM
Описание:
Эш Кетчум просыпает встречу с профессором в свой 10-й день рождения и в итоге получает упрямого Пикачу, а не того Покемона-стартовика, которого хотел! Но после сложного начала Эш и Пикачу становятся близкими друзьями и настоящими напарниками. Когда они мельком видят очень редкого Легендарного Покемона Хо-Оx, они решают разыскать его вместе, а ведёт их к цели Радужное Перо, которое Покемон оставляет позади.(с)pokemon.com
Релиз подготовил LightEssence
  • Источник BluRay:
    kakeruSMC[пользователь трекера ADC]
    Viz Media
  • Производство русского дубляжа: SDI Media Russia
    Источник: NETFLIX [Рип аудио: Wilmots]

    Роли озвучивали: Иван Калинин, Андрей Гриневич, Илья Хвостиков, Алёна Созинова, Анастасия Студилова, Антон Савенков, Антон Колесников, Мария Иващенко, Лариса Некипелова, Петр Иващенко, Дарья Фролова, Дмитрий Филимонов, Александр Дасевич, Ольга Зубкова, Андрей Бархударов, Антон Савенков, Лина Иванова, Екатерина Семёнова, Сергей Смирнов, Прохор Чеховской, Татьяна Шитова, Татьяна Веселкина, Ольга Кузьмина, Ольга Голованова
    • Русские субтитры [Перевод с Японского с Американскими именами]:
      Перевод: Drnndy
      Редактура: Seiya Loveless
      Отдельная благодарность: Akilvers

      Качество: BDRip | Тип релиза: Без хардсаба | Формат видео: MKV | Совместимость с бытовыми плеерами: Нетв составе контейнера:
      Видео: AVC(8bit), 1280х720, ~6000Kb/s, 23.976 fps(NTSC)
      Аудио 1: E-AC3, 640kbps, 48kHz, 5.1ch - Русский; [DUB] - Многоголосый, Дублированный [SDI Media Russia]
      Аудио 2: E-AC3, 640kbps, 48kHz, 5.1ch - Английский; [DUB] - Многоголосый, Дублированный [Оригинал]
      Субтитры 1: ASS, Русский - Netflix [SubRip by LightEssence]
      Субтитры 2: ASS, Русский - Перевод с Японского [Drnndy/Seiya Loveless]
      Субтитры 3: ASS, Английский - Netflix [SubRip by LightEssence]

      Скриншоты

      Отличия

      [BDRemux] [LightEssence] - BDRip, 720p

      Подробные тех. данные

      Код:
      General
      Unique ID : 257727480992892480895819809421007414895 (0xC1E481DF4D59997CDDEA6518C946666F)
      Complete name : xxxxxx\Pokemon the Movie 20 - I Choose You! [BDRip-720p][LightEssence].mkv
      Format : Matroska
      Format version : Version 4
      File size : 4.92 GiB
      Duration : 1 h 36 min
      Overall bit rate : 7 282 kb/s
      Encoded date : UTC 2019-03-03 18:47:51
      Writing application : mkvmerge v23.0.0 ('The Bride Said No') 64-bit
      Writing library : libebml v1.3.6 + libmatroska v1.4.9Video
      ID : 1
      Format : AVC
      Format/Info : Advanced Video Codec
      Format profile : High@L3.1
      Format settings : CABAC / 5 Ref Frames
      Format settings, CABAC : Yes
      Format settings, ReFrames : 5 frames
      Codec ID : V_MPEG4/ISO/AVC
      Duration : 1 h 36 min
      Bit rate : 6 000 kb/s
      Width : 1 280 pixels
      Height : 720 pixels
      Display aspect ratio : 16:9
      Frame rate mode : Constant
      Frame rate : 23.976 (24000/1001) FPS
      Color space : YUV
      Chroma subsampling : 4:2:0
      Bit depth : 8 bits
      Scan type : Progressive
      Bits/(Pixel*Frame) : 0.272
      Stream size : 4.06 GiB (82%)
      Title : Pokemon The Movie 20: I Choose You! - BDRip-720p [2017]
      Writing library : x264 core 157 r2935 545de2f
      Encoding settings : cabac=1 / ref=5 / deblock=1:-2:-2 / analyse=0x3:0x113 / me=hex / subme=8 / psy=1 / psy_rd=1.00:0.00 / mixed_ref=1 / me_range=16 / chroma_me=1 / trellis=2 / 8x8dct=1 / cqm=0 / deadzone=21,11 / fast_pskip=1 / chroma_qp_offset=-4 / threads=9 / lookahead_threads=1 / sliced_threads=0 / nr=0 / decimate=1 / interlaced=0 / bluray_compat=0 / constrained_intra=0 / bframes=3 / b_pyramid=2 / b_adapt=1 / b_bias=0 / direct=3 / weightb=1 / open_gop=0 / weightp=2 / keyint=240 / keyint_min=24 / scenecut=40 / intra_refresh=0 / rc_lookahead=50 / rc=2pass / mbtree=1 / bitrate=6000 / ratetol=1.0 / qcomp=0.60 / qpmin=0 / qpmax=69 / qpstep=4 / cplxblur=20.0 / qblur=0.5 / ip_ratio=1.40 / aq=1:1.00
      Language : English
      Default : Yes
      Forced : NoAudio #1
      ID : 2
      Format : E-AC-3
      Format/Info : Enhanced AC-3
      Commercial name : Dolby Digital Plus
      Codec ID : A_EAC3
      Duration : 1 h 36 min
      Bit rate mode : Constant
      Bit rate : 640 kb/s
      Channel(s) : 6 channels
      Channel layout : L R C LFE Ls Rs
      Sampling rate : 48.0 kHz
      Frame rate : 31.250 FPS (1536 SPF)
      Compression mode : Lossy
      Stream size : 443 MiB (9%)
      Title : RUS [DUB] - Многоголосый, Дублированный [SDI Media Russia]
      Language : Russian
      Service kind : Complete Main
      Default : No
      Forced : NoAudio #2
      ID : 3
      Format : E-AC-3
      Format/Info : Enhanced AC-3
      Commercial name : Dolby Digital Plus
      Codec ID : A_EAC3
      Duration : 1 h 36 min
      Bit rate mode : Constant
      Bit rate : 640 kb/s
      Channel(s) : 6 channels
      Channel layout : L R C LFE Ls Rs
      Sampling rate : 48.0 kHz
      Frame rate : 31.250 FPS (1536 SPF)
      Compression mode : Lossy
      Stream size : 443 MiB (9%)
      Title : ENG [DUB]
      Language : English
      Service kind : Complete Main
      Default : No
      Forced : NoText #1
      ID : 4
      Format : ASS
      Codec ID : S_TEXT/ASS
      Codec ID/Info : Advanced Sub Station Alpha
      Duration : 1 h 31 min
      Bit rate : 125 b/s
      Count of elements : 1385
      Compression mode : Lossless
      Stream size : 84.4 KiB (0%)
      Title : RUS [SUB] - NETFLIX [SubRip by LightEssence]
      Language : Russian
      Default : No
      Forced : NoText #2
      ID : 5
      Format : ASS
      Codec ID : S_TEXT/ASS
      Codec ID/Info : Advanced Sub Station Alpha
      Duration : 1 h 31 min
      Bit rate : 90 b/s
      Count of elements : 965
      Compression mode : Lossless
      Stream size : 60.5 KiB (0%)
      Title : RUS [SUB] - Перевод: Drnndy, Редактура: Seiya Loveless, Отдельная благодарность: Akilvers [Перевод с Японского]
      Language : Russian
      Default : No
      Forced : NoText #3
      ID : 6
      Format : ASS
      Codec ID : S_TEXT/ASS
      Codec ID/Info : Advanced Sub Station Alpha
      Duration : 1 h 34 min
      Bit rate : 118 b/s
      Count of elements : 1527
      Compression mode : Lossless
      Stream size : 82.7 KiB (0%)
      Title : ENG [SUB] -NETFLIX [SubRip by LightEssence]
      Language : English
      Default : No
      Forced : No
      Обновление раздачи: 03.03.2019

      Полнометражные фильмы Покемон

      BDRemux: |Movie 14 - White||Movie 18||Movie 19||Movie 20||Movie 21| BDRip-720p: |Movie 18||Movie 19||Movie 20||Movie 21|

  • Чтобы скачать этот контент, Вам необходимо:
    1. Скачать и установить торрент-клиент [клик для Windows], (для мобильного найдите на Play Маркет).
    2. Кликнуть по [Скачать]


    Внимание.
    Если проверка ВЫ НЕ РОБОТ - не работает, значит Вы используете устаревший браузер.
    Установите актуальный браузер и повторно кликните по [Скачать]
    Безопасность: торрент-клиент разрешён АВ Касперского.

    [asmlocator.ru].t618105.torrent 
    Торрент: Зарегистрирован [ 2019-03-12 23:05 ] · C230245E927CE05DB29375B0D408AA20466958D8

    Скачать .torrent

    Скачать

    13 KB

    Статус: проверено
    Скачан: 0 раз
    Размер: 4,92 GB
    terms.php
    [Профиль] [ЛС]
    Показать сообщения:    
    Ответить на тему

    Текущее время: 18-Сен 18:42

    Часовой пояс: UTC ± 0



    Вы не можете начинать темы
    Вы не можете отвечать на сообщения
    Вы не можете редактировать свои сообщения
    Вы не можете удалять свои сообщения
    Вы не можете голосовать в опросах
    Вы не можете прикреплять файлы к сообщениям
    Вы можете скачивать файлы
    Верим фактам, а не вранью Путина! Факт, что Правительство ведёт Россию к истреблению.
    Так как численность населения падает, даже не смотря на приток эмигрантов!
    Русская нация вымирает и вырождается, смешиваясь с эмигрантами!
    Факт, что военных и граждан предприятий заставляют голосовать за партию Единая Россия и Путина
    ПОД СТРАХОМ УВОЛЬНЕНИЯ!
    Нам не нужно Правительство, блокирующее личную жизнь, интернет, нарушающее сохранность данных.
    Все эти действия финансируются за счёт народа!