(Acoustic, Celtic Folk) [CD] Al Petteway - Midsummer Moon - 1995, FLAC (tracks+.cue), lossless

Ответить на тему
Статистика раздачи
Размер:  270 MB   |    Зарегистрирован:  10 месяцев 19 дней   |    Скачан:  1 раз

Полного источника не было: 3 месяца 7 дней

 
   
 
 
Автор Сообщение

star21 ®

Пол: Женский

Стаж: 4 года 2 месяца

Сообщений: 551946

Откуда: Екатеринбург

Создавать темы 07-Мар-2019 20:30

[Цитировать]

Al Petteway / Midsummer Moon Жанр: Acoustic, Celtic Folk
Носитель: CD
Год издания: 1995
Издатель (лейбл): Maggie's Music
Номер по каталогу: MMCD 210
Аудиокодек: FLAC (*.flac)
Тип рипа: tracks+.cue
Битрейт аудио: lossless
Продолжительность: 00:53:14
Источник: локальная сеть
Наличие сканов в содержимом раздачи: нет
Треклист:
1 The Red Haired Boy
2 Midsummer Moon
3 Solitude
4 Songline to Skye
5 Wintertide
6 Wild Mountain Thyme
7 Phooka
8 Chase the Moon
9 Little Evan
10 Amy's Tears
11 The Beauty Spot
12 New Moon
13 Fairies' Waltz
14 White Island
15 Evolution

Лог создания рипа

Exact Audio Copy V1.0 beta 3 from 29. August 2011EAC extraction logfile from 13. June 2012, 18:52Al Petteway / Midsummer MoonUsed drive  : HL-DT-STDVD+-RW GT32N   Adapter: 0  ID: 1Read mode               : SecureUtilize accurate stream : YesDefeat audio cache      : YesMake use of C2 pointers : NoRead offset correction                      : 103Overread into Lead-In and Lead-Out          : NoFill up missing offset samples with silence : YesDelete leading and trailing silent blocks   : NoNull samples used in CRC calculations       : YesUsed interface                              : Native Win32 interface for Win NT & 2000Gap handling                                : Appended to previous trackUsed output format              : User Defined EncoderSelected bitrate                : 1024 kBit/sQuality                         : HighAdd ID3 tag                     : NoCommand line compressor         : C:\Program Files (x86)\FLAC\flac.exeAdditional command line options : -8 -V -T "ARTIST=%artist%" -T "TITLE=%title%" -T "ALBUM=%albumtitle%" -T "DATE=%year%" -T "TRACKNUMBER=%tracknr%" -T "GENRE=%genre%" -T "PERFORMER=%albuminterpret%" -T "COMPOSER=%composer%" %haslyrics%--tag-from-file=LYRICS="%lyricsfile%"%haslyrics% -T "ALBUMARTIST=%albumartist%" -T "DISCNUMBER=%cdnumber%" -T "TOTALDISCS=%totalcds%" -T "TOTALTRACKS=%numtracks%" -T "COMMENT=%comment%" %source% -o %dest%TOC of the extracted CD     Track |   Start  |  Length  | Start sector | End sector    ---------------------------------------------------------        1  |  0:00.00 |  3:56.05 |         0    |    17704        2  |  3:56.05 |  3:13.27 |     17705    |    32206        3  |  7:09.32 |  4:28.23 |     32207    |    52329        4  | 11:37.55 |  2:56.20 |     52330    |    65549        5  | 14:34.00 |  2:41.55 |     65550    |    77679        6  | 17:15.55 |  5:56.20 |     77680    |   104399        7  | 23:12.00 |  4:22.35 |    104400    |   124084        8  | 27:34.35 |  2:11.50 |    124085    |   133959        9  | 29:46.10 |  2:09.25 |    133960    |   143659       10  | 31:55.35 |  3:46.40 |    143660    |   160649       11  | 35:42.00 |  2:39.55 |    160650    |   172629       12  | 38:21.55 |  5:07.17 |    172630    |   195671       13  | 43:28.72 |  1:43.10 |    195672    |   203406       14  | 45:12.07 |  3:10.08 |    203407    |   217664       15  | 48:22.15 |  4:52.15 |    217665    |   239579Track  1     Filename C:\Users\Joe M\Desktop\Al Petteway - Midsummer Moon FLAC\01 The Red-Haired Boy.wav     Pre-gap length  0:00:02.00     Peak level 93.5 %     Extraction speed 1.1 X     Track quality 99.9 %     Test CRC 3BA5673E     Copy CRC 3BA5673E     Track not present in AccurateRip database     Copy OKTrack  2     Filename C:\Users\Joe M\Desktop\Al Petteway - Midsummer Moon FLAC\02 Midsummer Moon.wav     Peak level 58.7 %     Extraction speed 1.3 X     Track quality 100.0 %     Test CRC D30BE1D2     Copy CRC D30BE1D2     Track not present in AccurateRip database     Copy OKTrack  3     Filename C:\Users\Joe M\Desktop\Al Petteway - Midsummer Moon FLAC\03 Solitude.wav     Peak level 95.2 %     Extraction speed 1.5 X     Track quality 100.0 %     Test CRC AF2268A1     Copy CRC AF2268A1     Track not present in AccurateRip database     Copy OKTrack  4     Filename C:\Users\Joe M\Desktop\Al Petteway - Midsummer Moon FLAC\04 Songline To Skye.wav     Pre-gap length  0:00:01.64     Peak level 97.1 %     Extraction speed 1.3 X     Track quality 99.9 %     Test CRC 896A9770     Copy CRC 896A9770     Track not present in AccurateRip database     Copy OKTrack  5     Filename C:\Users\Joe M\Desktop\Al Petteway - Midsummer Moon FLAC\05 Wintertide.wav     Peak level 84.2 %     Extraction speed 1.5 X     Track quality 100.0 %     Test CRC 62F6D375     Copy CRC 62F6D375     Track not present in AccurateRip database     Copy OKTrack  6     Filename C:\Users\Joe M\Desktop\Al Petteway - Midsummer Moon FLAC\06 Wild Mountain Thyme.wav     Pre-gap length  0:00:02.80     Peak level 75.8 %     Extraction speed 1.9 X     Track quality 100.0 %     Test CRC 60D4F530     Copy CRC 60D4F530     Track not present in AccurateRip database     Copy OKTrack  7     Filename C:\Users\Joe M\Desktop\Al Petteway - Midsummer Moon FLAC\07 Phooka.wav     Pre-gap length  0:00:01.90     Peak level 99.7 %     Extraction speed 1.9 X     Track quality 100.0 %     Test CRC 6050E890     Copy CRC 6050E890     Track not present in AccurateRip database     Copy OKTrack  8     Filename C:\Users\Joe M\Desktop\Al Petteway - Midsummer Moon FLAC\08 Chase The Moon.wav     Peak level 99.3 %     Extraction speed 1.8 X     Track quality 100.0 %     Test CRC 884AC5B2     Copy CRC 884AC5B2     Track not present in AccurateRip database     Copy OKTrack  9     Filename C:\Users\Joe M\Desktop\Al Petteway - Midsummer Moon FLAC\09 Little Evan.wav     Pre-gap length  0:00:01.97     Peak level 61.3 %     Extraction speed 1.8 X     Track quality 100.0 %     Test CRC 11C4BF63     Copy CRC 11C4BF63     Track not present in AccurateRip database     Copy OKTrack 10     Filename C:\Users\Joe M\Desktop\Al Petteway - Midsummer Moon FLAC\10 Amy's Tears.wav     Pre-gap length  0:00:01.30     Peak level 77.4 %     Extraction speed 2.1 X     Track quality 100.0 %     Test CRC 057E2F22     Copy CRC 057E2F22     Track not present in AccurateRip database     Copy OKTrack 11     Filename C:\Users\Joe M\Desktop\Al Petteway - Midsummer Moon FLAC\11 The Beauty Spot.wav     Peak level 93.3 %     Extraction speed 2.0 X     Track quality 100.0 %     Test CRC FE94F65C     Copy CRC FE94F65C     Track not present in AccurateRip database     Copy OKTrack 12     Filename C:\Users\Joe M\Desktop\Al Petteway - Midsummer Moon FLAC\12 New Moon.wav     Peak level 82.1 %     Extraction speed 2.3 X     Track quality 100.0 %     Test CRC 81CE45FE     Copy CRC 81CE45FE     Track not present in AccurateRip database     Copy OKTrack 13     Filename C:\Users\Joe M\Desktop\Al Petteway - Midsummer Moon FLAC\13 Fairies' Waltz.wav     Peak level 65.5 %     Extraction speed 1.9 X     Track quality 100.0 %     Test CRC 3A361F52     Copy CRC 3A361F52     Track not present in AccurateRip database     Copy OKTrack 14     Filename C:\Users\Joe M\Desktop\Al Petteway - Midsummer Moon FLAC\14 White Island.wav     Pre-gap length  0:00:01.00     Peak level 75.8 %     Extraction speed 2.3 X     Track quality 100.0 %     Test CRC BD85C1F3     Copy CRC BD85C1F3     Track not present in AccurateRip database     Copy OKTrack 15     Filename C:\Users\Joe M\Desktop\Al Petteway - Midsummer Moon FLAC\15 Evolution.wav     Pre-gap length  0:00:01.04     Peak level 95.7 %     Extraction speed 2.5 X     Track quality 100.0 %     Test CRC A95612F1     Copy CRC A95612F1     Track not present in AccurateRip database     Copy OKNone of the tracks are present in the AccurateRip databaseNo errors occurredEnd of status report==== Log checksum C221E639AFE244017F16309A98FACB5D2E2E67C5FC34D44C8F125C9F7F7D5B08 ====

Содержание индексной карты (.CUE)

REM GENRE AcousticREM DATE 1995REM DISCID D50C7A0FREM COMMENT "ExactAudioCopy v1.0b3"PERFORMER "Al Petteway"TITLE "Midsummer Moon"FILE "01 The Red-Haired Boy.wav" WAVE  TRACK 01 AUDIO    TITLE "The Red-Haired Boy"    PERFORMER "Al Petteway"    INDEX 01 00:00:00FILE "02 Midsummer Moon.wav" WAVE  TRACK 02 AUDIO    TITLE "Midsummer Moon"    PERFORMER "Al Petteway"    INDEX 01 00:00:00FILE "03 Solitude.wav" WAVE  TRACK 03 AUDIO    TITLE "Solitude"    PERFORMER "Al Petteway"    INDEX 01 00:00:00  TRACK 04 AUDIO    TITLE "Songline To Skye"    PERFORMER "Al Petteway"    INDEX 00 04:26:50FILE "04 Songline To Skye.wav" WAVE    INDEX 01 00:00:00FILE "05 Wintertide.wav" WAVE  TRACK 05 AUDIO    TITLE "Wintertide"    PERFORMER "Al Petteway"    INDEX 01 00:00:00  TRACK 06 AUDIO    TITLE "Wild Mountain Thyme"    PERFORMER "Al Petteway"    INDEX 00 02:38:70FILE "06 Wild Mountain Thyme.wav" WAVE    INDEX 01 00:00:00  TRACK 07 AUDIO    TITLE "Phooka"    PERFORMER "Al Petteway"    INDEX 00 05:54:27FILE "07 Phooka.wav" WAVE    INDEX 01 00:00:00FILE "08 Chase The Moon.wav" WAVE  TRACK 08 AUDIO    TITLE "Chase The Moon"    PERFORMER "Al Petteway"    INDEX 01 00:00:00  TRACK 09 AUDIO    TITLE "Little Evan"    PERFORMER "Al Petteway"    INDEX 00 02:09:52FILE "09 Little Evan.wav" WAVE    INDEX 01 00:00:00  TRACK 10 AUDIO    TITLE "Amy's Tears"    PERFORMER "Al Petteway"    INDEX 00 02:08:02FILE "10 Amy's Tears.wav" WAVE    INDEX 01 00:00:00FILE "11 The Beauty Spot.wav" WAVE  TRACK 11 AUDIO    TITLE "The Beauty Spot"    PERFORMER "Al Petteway"    INDEX 01 00:00:00FILE "12 New Moon.wav" WAVE  TRACK 12 AUDIO    TITLE "New Moon"    PERFORMER "Al Petteway"    INDEX 01 00:00:00FILE "13 Fairies' Waltz.wav" WAVE  TRACK 13 AUDIO    TITLE "Fairies' Waltz"    PERFORMER "Al Petteway"    INDEX 01 00:00:00  TRACK 14 AUDIO    TITLE "White Island"    PERFORMER "Al Petteway"    INDEX 00 01:42:10FILE "14 White Island.wav" WAVE    INDEX 01 00:00:00  TRACK 15 AUDIO    TITLE "Evolution"    PERFORMER "Al Petteway"    INDEX 00 03:09:05FILE "15 Evolution.wav" WAVE    INDEX 01 00:00:00

Чтобы скачать этот контент, Вам необходимо:
1. Скачать и установить торрент-клиент [клик для Windows], (для мобильного найдите на Play Маркет).
2. Кликнуть по [Скачать]


Внимание.
Если проверка ВЫ НЕ РОБОТ - не работает, значит Вы используете устаревший браузер.
Установите актуальный браузер и повторно кликните по [Скачать]
Безопасность: торрент-клиент разрешён АВ Касперского.

[asmlocator.ru].t617005.torrent 
Торрент: Зарегистрирован [ 2019-03-07 20:30 ] · 7E65277E2C7897E7A5F6811A1B5F5377CDA9D46F

Скачать .torrent

Скачать

12 KB

Статус: проверено
Скачан: 1 раз
Размер: 270 MB
terms.php
[Профиль] [ЛС]
Показать сообщения:    
Ответить на тему

Текущее время: 27-Янв 08:05

Часовой пояс: UTC ± 0



Вы не можете начинать темы
Вы не можете отвечать на сообщения
Вы не можете редактировать свои сообщения
Вы не можете удалять свои сообщения
Вы не можете голосовать в опросах
Вы не можете прикреплять файлы к сообщениям
Вы можете скачивать файлы
Верим фактам, а не вранью Путина! Факт, что Правительство ведёт Россию к истреблению.
Так как численность населения падает, даже не смотря на приток эмигрантов!
Русская нация вымирает и вырождается, смешиваясь с эмигрантами!
Факт, что военных и граждан предприятий заставляют голосовать за партию Единая Россия и Путина
ПОД СТРАХОМ УВОЛЬНЕНИЯ!
Нам не нужно Правительство, блокирующее личную жизнь, интернет, нарушающее сохранность данных.
Все эти действия финансируются за счёт народа!