[TR24][OF][GM] Assassin\'s Creed Odyssey (World Music & Sea Shanties Edition) (by Various Artists) - 2018 (Soundtrack)

Reply to topic
DL-List and Torrent activity
Size:  473 MB   |    Registered:  2 months 18 days   |    Completed:  0 times

Seeder not seen: Never

 
   
 
 
Author Message

star21 ®

Gender: Female

Longevity: 3 years 6 months

Posts: 552208

Location: Екатеринбург

Post 06-Mar-2019 09:55

[Quote]

Assassin's Creed Odyssey (World Music & Sea Shanties Edition) Формат записи/Источник записи: [TR24][OF][GM]
Наличие водяных знаков: Нет
Год издания/переиздания диска: 2018
Жанр: Soundtrack
Продолжительность: 00:43:11
Наличие сканов в содержимом раздачи: Только обложка альбома
Источник (релизер): qobuz
Контейнер: FLAC (*.flac)
Тип рипа: tracks
Разрядность: 24/48
Количество каналов: 2.0

Треклист

01. Messolonghi Cultural Centre Choir - The Tale of Leonidas (1:37)
02. Kalia Lyraki - Ancient Celebration (1:17)
03. Messolonghi Cultural Centre Choir - The Black Earth Drinks (1:50)
04. Messolonghi Cultural Centre Choir - The Legend of the Hero (1:38)
05. Kalia Lyraki - Ancient Kithara (1:40)
06. Zakynthines Fones of Montreal - Through the Storm (1:50)
07. Messolonghi Cultural Centre Choir - The Fate of the Wolf (1:52)
08. Kalia Lyraki - Sing of War (1:15)
09. Zakynthines Fones of Montreal - Muse of the Forest (1:25)
10. Messolonghi Cultural Centre Choir - The Death of the Wolf (1:54)
11. Messolonghi Cultural Centre Choir - The Lost Shield (1:44)
12. Messolonghi Cultural Centre Choir - The Cult of the Kosmos (1:20)
13. Kalia Lyraki - Ancient Knossos (1:22)
14. Messolonghi Cultural Centre Choir - Bacchus Teaches me to Dance (2:01)
15. Zakynthines Fones of Montreal - Ares God of War (1:29)
16. Messolonghi Cultural Centre Choir - The Golden Age of Athens (2:04)
17. Kalia Lyraki - Ancient Pandura (1:18)
18. Zakynthines Fones of Montreal - Song to Bacchus (1:17)
19. Messolonghi Cultural Centre Choir - Odyssey (Sea Shanty Version) (1:33)
20. Kalia Lyraki - The Black Earth Drinks 2 (1:21)
21. Messolonghi Cultural Centre Choir - Myrinne (Sea Shanty Version) (1:19)
22. Messolonghi Cultural Centre Choir - The Mysterious Minotaur (0:58)
23. Kalia Lyraki - Ceremony and Celebration (1:17)
24. Zakynthines Fones of Montreal - When I Drink (1:29)
25. Messolonghi Cultural Centre Choir - Song for a Young Girl (1:35)
26. Messolonghi Cultural Centre Choir - The Fall of Athens (2:05)
27. Kalia Lyraki - Myrinne (Greek Sea Shanty Version) (1:16)
28. Zakynthines Fones of Montreal - Poseidon God of the Sea (1:39)

foo_dr

foobar2000 1.3.3 (cdpos.biz) / Замер динамического диапазона (DR) 1.1.1Дата отчёта:  2018-12-24 16:23:49--------------------------------------------------------------------------------Анализ:   Kalia Lyraki / Assassin's Creed Odyssey (World Music & Sea Shanties Edition) (1-8)          Messolonghi Cultural Centre Choir / Assassin's Creed Odyssey (World Music & Sea Shanties Edition) (9-22)          Zakynthines Fones of Montreal / Assassin's Creed Odyssey (World Music & Sea Shanties Edition) (23-28)--------------------------------------------------------------------------------DR         Пики         RMS           Продолжительность трека--------------------------------------------------------------------------------DR13      -1.04 дБ   -15.21 дБ      1:17 02-Ancient CelebrationDR13      -1.04 дБ   -18.52 дБ      1:40 05-Ancient KitharaDR14      -1.04 дБ   -16.67 дБ      1:15 08-Sing of WarDR14      -1.04 дБ   -17.59 дБ      1:22 13-Ancient KnossosDR12      -1.04 дБ   -14.40 дБ      1:18 17-Ancient PanduraDR14      -1.04 дБ   -17.57 дБ      1:21 20-The Black Earth Drinks 2DR13      -1.04 дБ   -16.12 дБ      1:17 23-Ceremony and CelebrationDR13      -1.04 дБ   -16.34 дБ      1:16 27-Myrinne (Greek Sea Shanty Version)DR10      -1.04 дБ   -13.55 дБ      1:37 01-The Tale of LeonidasDR11      -1.04 дБ   -13.57 дБ      1:50 03-The Black Earth DrinksDR9       -1.04 дБ   -12.23 дБ      1:38 04-The Legend of the HeroDR10      -1.04 дБ   -13.77 дБ      1:52 07-The Fate of the WolfDR9       -1.04 дБ   -12.70 дБ      1:54 10-The Death of the WolfDR11      -1.04 дБ   -14.95 дБ      1:44 11-The Lost ShieldDR10      -1.04 дБ   -12.32 дБ      1:20 12-The Cult of the KosmosDR10      -1.04 дБ   -13.64 дБ      2:01 14-Bacchus Teaches me to DanceDR11      -1.04 дБ   -13.30 дБ      2:04 16-The Golden Age of AthensDR11      -1.04 дБ   -13.78 дБ      1:33 19-Odyssey (Sea Shanty Version)DR11      -1.04 дБ   -13.43 дБ      1:19 21-Myrinne (Sea Shanty Version)DR12      -1.04 дБ   -13.94 дБ      0:58 22-The Mysterious MinotaurDR10      -1.04 дБ   -13.28 дБ      1:35 25-Song for a Young GirlDR10      -1.04 дБ   -13.16 дБ      2:05 26-The Fall of AthensDR10      -1.04 дБ   -12.15 дБ      1:50 06-Through the StormDR11      -1.04 дБ   -14.49 дБ      1:25 09-Muse of the ForestDR10      -1.04 дБ   -12.14 дБ      1:29 15-Ares God of WarDR10      -1.04 дБ   -13.25 дБ      1:17 18-Song to BacchusDR11      -1.04 дБ   -13.19 дБ      1:29 24-When I DrinkDR9       -1.04 дБ   -12.05 дБ      1:39 28-Poseidon God of the Sea--------------------------------------------------------------------------------Количество треков: 28Реальные значения DR: DR11Частота:  48000 ГцКаналов:  2Разрядность:   24Битрейт:  1631 кбит/сКодек:   FLAC================================================================================

To download the content you need:
1. Download and install torrent client [for Windows] or for mobile system
2. Click on [Download]
Attention.
If the test YOU are NOT a ROBOT - does not work, then You are using an outdated browser.
Install the current browser and click on [Download]
Security: torrent client is allowed by Kaspersky.

[asmlocator.ru].t616276.torrent 
Torrent: Registered [ 2019-03-06 09:55 ] · 287444DBA939958C222D85262FF7C7409B41C296

Download .torrent

Download

22 KB

Status: checked
Completed: 0 times
Size: 473 MB
terms.php
[Profile] [PM]
Display posts:    
Reply to topic

Current time is: 24-May 14:10

All times are UTC ± 0



You cannot post new topics in this forum
You cannot reply to topics in this forum
You cannot edit your posts in this forum
You cannot delete your posts in this forum
You cannot vote in polls in this forum
You cannot attach files in this forum
You can download files in this forum