(Eurodance, Euro House, Europop) [CD] Get Ready! - Get Ready! - 1996, FLAC (image+.cue), lossless

Reply to topic
DL-List and Torrent activity
Size:  417 MB   |    Registered:  2 months 19 days   |    Completed:  1 time

Seeder not seen: 42 minutes

 
   
 
 
Author Message

star21 ®

Gender: Female

Longevity: 3 years 6 months

Posts: 552208

Location: Екатеринбург

Post 05-Mar-2019 12:15

[Quote]

Get Ready! / Get Ready! Жанр: Eurodance, Euro House, Europop
Носитель: CD
Страна-производитель диска (релиза): Netherlands
Год издания: 1996
Издатель (лейбл): Play That Beat!
Номер по каталогу: 7243 842347 2 0
Страна исполнителя (группы): Belgium
Аудиокодек: FLAC (*.flac)
Тип рипа: image+.cue
Битрейт аудио: lossless
Продолжительность: 00:58:22
Источник: собственный рип
Наличие сканов в содержимом раздачи: нет
Треклист:
1) Diep 3:36
2) Niet Naar Huis 3:57
3) Laat 3:37
4) Rots 3:48
5) Eenzaam Meisje 3:34
6) Ze Wil Me Niet 3:03
7) Vuur 4:01
8) Wachten Op Jou 3:16
9) Nooit Meer Alleen 3:10
10) Verlangen 3:57
11) Wie Zal Ze Kiezen ? 3:23
12) Dance Across The Floor 3:25
13) Get Ready Megamix 15:29

Лог создания рипа

Exact Audio Copy V1.3 from 2. September 2016Отчёт EAC об извлечении, выполненном 5. марта 2019, 10:21Get Ready! / Get Ready!Дисковод: HL-DT-STDVDRAM GT32N   Adapter: 1  ID: 0Режим чтения                 : ДостоверностьИспользование точного потока : ДаОтключение кэша аудио        : ДаИспользование указателей C2  : НетКоррекция смещения при чтении                     : 103Способность читать области Lead-in и Lead-out     : НетЗаполнение пропущенных сэмплов тишиной            : ДаУдаление блоков с тишиной в начале и конце        : НетПри вычислениях CRC использовались нулевые сэмплы : ДаИнтерфейс                                         : Встроенный Win32-интерфейс для Win NT/2000Выходной формат          : Пользовательский кодировщикВыбранный битрейт        : 896 kBit/sКачество                 : ВысокийДобавление ID3-тега      : НетУтилита сжатия           : C:\Program Files (x86)\Exact Audio Copy\flac-1.3.1-win\win64\flac.exeДополнительные параметры : -8 -V -T "ARTIST=%artist%" -T "TITLE=%title%" -T "ALBUM=%albumtitle%" -T "DATE=%year%" -T "TRACKNUMBER=%tracknr%/%numtracks%" -T "GENRE=%genre%" -T "COMMENT=%comment%" %source% -o %dest%TOC извлечённого CD     Трек |   Старт  | Длительность | Начальный сектор | Конечный сектор    ---------------------------------------------------------------------       1  |  0:00.00 |    3:36.05   |           0      |      16204       2  |  3:36.05 |    3:57.62   |       16205      |      34041       3  |  7:33.67 |    3:37.18   |       34042      |      50334       4  | 11:11.10 |    3:48.27   |       50335      |      67461       5  | 14:59.37 |    3:34.13   |       67462      |      83524       6  | 18:33.50 |    3:03.55   |       83525      |      97304       7  | 21:37.30 |    4:01.32   |       97305      |     115411       8  | 25:38.62 |    3:16.68   |      115412      |     130179       9  | 28:55.55 |    3:10.62   |      130180      |     144491      10  | 32:06.42 |    3:57.33   |      144492      |     162299      11  | 36:04.00 |    3:23.10   |      162300      |     177534      12  | 39:27.10 |    3:25.50   |      177535      |     192959      13  | 42:52.60 |   15:29.07   |      192960      |     262641Характеристики диапазона извлечения и сообщения об ошибкахВыбранный диапазон     Имя файла E:\Music\Rutracker\My torrents\Get Ready! - Get Ready! (1996) FLAC\Get Ready! - Get Ready!.wav     Пиковый уровень 100.0 %     Скорость извлечения 2.2 X     Качество диапазона 100.0 %     CRC теста DC7D56E3     CRC копии DC7D56E3     Копирование... OKОшибок не произошлоAccurateRip: сводкаТрек  1  : извлечено точно (доверие 3)  [845E42F2]  (AR v1)Трек  2  : извлечено точно (доверие 3)  [E61A7A99]  (AR v1)Трек  3  : извлечено точно (доверие 3)  [B0CC37DB]  (AR v1)Трек  4  : извлечено точно (доверие 3)  [646DD094]  (AR v1)Трек  5  : извлечено точно (доверие 3)  [D638D902]  (AR v1)Трек  6  : извлечено точно (доверие 3)  [CEE5C2EB]  (AR v1)Трек  7  : извлечено точно (доверие 3)  [8CE2F54D]  (AR v1)Трек  8  : извлечено точно (доверие 3)  [197B7CDD]  (AR v1)Трек  9  : извлечено точно (доверие 3)  [55BE3990]  (AR v1)Трек 10  : извлечено точно (доверие 3)  [2492447D]  (AR v1)Трек 11  : извлечено точно (доверие 3)  [D4F927BC]  (AR v1)Трек 12  : извлечено точно (доверие 2)  [B5AAA7BB]  (AR v1)Трек 13  : извлечено точно (доверие 2)  [25F01EE9]  (AR v1)Все треки извлечены точноКонец отчёта---- CUETools DB Plugin V2.1.6[CTDB TOCID: N_uvOB3qk.n6TF38XOTvbfpLC40-] foundSubmit result: N_uvOB3qk.n6TF38XOTvbfpLC40- has been confirmedTrack | CTDB Status  1   | (13/13) Accurately ripped  2   | (13/13) Accurately ripped  3   | (13/13) Accurately ripped  4   | (13/13) Accurately ripped  5   | (13/13) Accurately ripped  6   | (13/13) Accurately ripped  7   | (13/13) Accurately ripped  8   | (13/13) Accurately ripped  9   | (13/13) Accurately ripped 10   | (13/13) Accurately ripped 11   | (13/13) Accurately ripped 12   | (12/13) Accurately ripped 13   | (11/13) Accurately ripped==== Контрольная сумма отчёта 5F0DA5ECC3548A00A0B77889590986E67167C12B63459A09BB68051FB7ED87D0 ====

Содержание индексной карты (.CUE)

REM DATE 1996REM DISCID B70DAD0DREM COMMENT "ExactAudioCopy v1.3"PERFORMER "Get Ready!"TITLE "Get Ready!"REM COMPOSER ""FILE "Get Ready! - Get Ready!.flac" WAVE  TRACK 01 AUDIO    TITLE "Diep"    PERFORMER "Get Ready!"    REM COMPOSER ""    INDEX 01 00:00:00  TRACK 02 AUDIO    TITLE "Niet naar huis"    PERFORMER "Get Ready!"    REM COMPOSER ""    INDEX 01 03:36:05  TRACK 03 AUDIO    TITLE "Laat"    PERFORMER "Get Ready!"    REM COMPOSER ""    INDEX 01 07:33:67  TRACK 04 AUDIO    TITLE "Rots"    PERFORMER "Get Ready!"    REM COMPOSER ""    INDEX 01 11:11:10  TRACK 05 AUDIO    TITLE "Eenzaam meisje"    PERFORMER "Get Ready!"    REM COMPOSER ""    INDEX 01 14:59:37  TRACK 06 AUDIO    TITLE "Ze wil me niet"    PERFORMER "Get Ready!"    REM COMPOSER ""    INDEX 01 18:33:50  TRACK 07 AUDIO    TITLE "Vuur"    PERFORMER "Get Ready!"    REM COMPOSER ""    INDEX 01 21:37:30  TRACK 08 AUDIO    TITLE "Wachten op jou"    PERFORMER "Get Ready!"    REM COMPOSER ""    INDEX 01 25:38:62  TRACK 09 AUDIO    TITLE "Nooit meer alleen"    PERFORMER "Get Ready!"    REM COMPOSER ""    INDEX 01 28:55:55  TRACK 10 AUDIO    TITLE "Verlangen"    PERFORMER "Get Ready!"    REM COMPOSER ""    INDEX 01 32:06:42  TRACK 11 AUDIO    TITLE "Wie zal ze kiezen"    PERFORMER "Get Ready!"    REM COMPOSER ""    INDEX 01 36:04:00  TRACK 12 AUDIO    TITLE "Dance Across the Floor"    PERFORMER "Get Ready!"    REM COMPOSER ""    INDEX 01 39:27:10  TRACK 13 AUDIO    TITLE "Get Ready! Megamix"    PERFORMER "Get Ready!"    REM COMPOSER ""    INDEX 01 42:52:60
Доп. информация: Еще один бельгийский коллектив а-ля En Zo... и Good Shape из прошлых моих раздач

Об альбоме (сборнике)

Credits:
Artwork By [Lay-out] – Jan Vanroelen
Lead Vocals – Glenn* (tracks: 7, 8, 11), Jimmy* (tracks: 1 to 4, 6 to 10, 12, 13), Koen* (tracks: 5)
Music By, Lyrics By – Armath (tracks: 1 to 6, 11)
Photography – Frank Abbeloos
Producer – DLM (2) (tracks: 1 to 10, 12), Roland Verlooven (tracks: 11), The Unity Mixers (tracks: 13)Notes:
Recorded at Studio DLM except track 11, which was recorded at The Groove - Antwerp. Album mixed at Galaxy Studios.
Track 13 is a bonus track.
(P)+(C) 1996 Play That Beat! A division of Virgin Belgium NV/SA.
Made in Holland. Marketed and distributed by Virgin.
Barcode# 7 24384 23472 0 / bel/BIEM
Catalog# is mentioned on back cover and spines as "7243 <B>842347 2</B> 0", on inside booklet as "7 243 <B>8 42347 2</B> 0" and on disc as "7243 <B>8 42347 2</B> 0".
Matrix ring reads: EMI UDEN 8423472 @ 1
IFPI 159B (pressed) / IFPI L047 (matrix ring)Barcode and Other Identifiers:
Barcode: 724384234720

Состав

Jimmy Samijn, Glenn De Gendt, Jean-Marie Desreux, Koen Bruggemans

To download the content you need:
1. Download and install torrent client [for Windows] or for mobile system
2. Click on [Download]
Attention.
If the test YOU are NOT a ROBOT - does not work, then You are using an outdated browser.
Install the current browser and click on [Download]
Security: torrent client is allowed by Kaspersky.

[asmlocator.ru].t615821.torrent 
Torrent: Registered [ 2019-03-05 12:15 ] · F64856A4B12531283455CE5C53977856E90E19EA

Download .torrent

Download

17 KB

Status: checked
Completed: 1 times
Size: 417 MB
terms.php
[Profile] [PM]
Display posts:    
Reply to topic

Current time is: 24-May 14:12

All times are UTC ± 0



You cannot post new topics in this forum
You cannot reply to topics in this forum
You cannot edit your posts in this forum
You cannot delete your posts in this forum
You cannot vote in polls in this forum
You cannot attach files in this forum
You can download files in this forum