[LAT] (Hard Rock, Pop Rock, Post-Punk) [CD] Linga - 20 Labakas Dziesmas - 2009, FLAC (tracks+.cue), lossless

Ответить на тему
Статистика раздачи
Размер:  690 MB   |    Зарегистрирован:  18 дней   |    Скачан:  0 раз

Полного источника не было: Никогда

 
   
 
 
Автор Сообщение

star21 ®

Пол: Женский

Стаж: 3 года 4 месяца

Сообщений: 552479

Откуда: Екатеринбург

Создавать темы 02-Мар-2019 18:30

[Цитировать]

Linga / 20 Labakas Dziesmas Жанр: Hard Rock, Pop Rock, Post-Punk
Носитель: CD
Страна-производитель диска (релиза): Latvia
Год издания: 2009
Издатель (лейбл): Microphone Records
Номер по каталогу: MRCD 410
Аудиокодек: FLAC (*.flac)
Тип рипа: tracks+.cue
Битрейт аудио: lossless
Продолжительность: 01:10:44
Источник: локальная сеть
Наличие сканов в содержимом раздачи: да
Треклист:
1 Spēle
2 Pilsēta
3 Nāc Man Līdz
4 Signe Melo
5 Kā Sāp
6 Rudens
7 Šeit
8 Smaids
9 Atdodies Man
10 Karogs
11 Negribu Lai
12 Varbūt
13 Nāc Dejot
14 Krodziņš
15 Vējā
16 Tikai Tevi
17 P-03
18 Jā Vai Nē
19 Spārni
20 Gan

Лог создания рипа

Exact Audio Copy V1.0 beta 3 from 29. August 2011EAC extraction logfile from 15. January 2017, 18:54Linga / 20 labākās dziesmasUsed drive  : PLEXTOR DVDR   PX-760A   Adapter: 0  ID: 0Read mode               : SecureUtilize accurate stream : YesDefeat audio cache      : YesMake use of C2 pointers : NoRead offset correction                      : 30Overread into Lead-In and Lead-Out          : YesFill up missing offset samples with silence : YesDelete leading and trailing silent blocks   : NoNull samples used in CRC calculations       : YesUsed interface                              : Installed external ASPI interfaceGap handling                                : Appended to previous trackUsed output format              : User Defined EncoderSelected bitrate                : 1024 kBit/sQuality                         : HighAdd ID3 tag                     : NoCommand line compressor         : d:\apps\flac.exeAdditional command line options : -8 -P 1024 -T "ARTIST=%artist%" -T "TITLE=%title%" -T "ALBUM=%albumtitle%" -T "DATE=%year%" -T "TRACKNUMBER=%tracknr%" -T "GENRE=%genre%" -T "COMPOSER=%composer%" -T "ALBUM ARTIST=%albumartist%" -T "DISCNUMBER=%cdnumber%" -T "TOTALDISCS=%totalcds%" %source% -o %dest%TOC of the extracted CD     Track |   Start  |  Length  | Start sector | End sector    ---------------------------------------------------------        1  |  0:00.00 |  3:15.47 |         0    |    14671        2  |  3:15.47 |  3:27.60 |     14672    |    30256        3  |  6:43.32 |  4:21.24 |     30257    |    49855        4  | 11:04.56 |  4:02.09 |     49856    |    68014        5  | 15:06.65 |  3:29.49 |     68015    |    83738        6  | 18:36.39 |  3:20.01 |     83739    |    98739        7  | 21:56.40 |  2:49.69 |     98740    |   111483        8  | 24:46.34 |  3:23.48 |    111484    |   126756        9  | 28:10.07 |  3:09.03 |    126757    |   140934       10  | 31:19.10 |  2:46.63 |    140935    |   153447       11  | 34:05.73 |  3:56.14 |    153448    |   171161       12  | 38:02.12 |  3:58.32 |    171162    |   189043       13  | 42:00.44 |  2:49.68 |    189044    |   201786       14  | 44:50.37 |  3:33.33 |    201787    |   217794       15  | 48:23.70 |  4:47.46 |    217795    |   239365       16  | 53:11.41 |  2:57.01 |    239366    |   252641       17  | 56:08.42 |  3:40.31 |    252642    |   269172       18  | 59:48.73 |  3:36.25 |    269173    |   285397       19  | 63:25.23 |  3:29.12 |    285398    |   301084       20  | 66:54.35 |  3:58.55 |    301085    |   318989Track  1     Filename T:\working\Linga - [2009] 20 labākās dziesmas {MRCD 410}\01 - Spēle.wav     Pre-gap length  0:00:02.00     Peak level 99.9 %     Extraction speed 2.1 X     Track quality 100.0 %     Test CRC F70F2420     Copy CRC F70F2420     Accurately ripped (confidence 2)  [1BA8A2DD]  (AR v2)     Copy OKTrack  2     Filename T:\working\Linga - [2009] 20 labākās dziesmas {MRCD 410}\02 - Pilsēta.wav     Pre-gap length  0:00:02.00     Peak level 99.9 %     Extraction speed 1.8 X     Track quality 99.9 %     Test CRC 69F3B67C     Copy CRC 69F3B67C     Accurately ripped (confidence 2)  [463A145C]  (AR v2)     Copy OKTrack  3     Filename T:\working\Linga - [2009] 20 labākās dziesmas {MRCD 410}\03 - Nāc man līdz.wav     Pre-gap length  0:00:02.00     Peak level 99.9 %     Extraction speed 2.2 X     Track quality 100.0 %     Test CRC 37FFECCA     Copy CRC 37FFECCA     Accurately ripped (confidence 2)  [D3BD0709]  (AR v2)     Copy OKTrack  4     Filename T:\working\Linga - [2009] 20 labākās dziesmas {MRCD 410}\04 - Signe melo.wav     Pre-gap length  0:00:02.00     Peak level 99.9 %     Extraction speed 2.1 X     Track quality 100.0 %     Test CRC 90E5A302     Copy CRC 90E5A302     Accurately ripped (confidence 2)  [9D8766CE]  (AR v2)     Copy OKTrack  5     Filename T:\working\Linga - [2009] 20 labākās dziesmas {MRCD 410}\05 - Kā sāp.wav     Pre-gap length  0:00:02.00     Peak level 99.9 %     Extraction speed 2.1 X     Track quality 100.0 %     Test CRC 517EF62D     Copy CRC 517EF62D     Accurately ripped (confidence 2)  [AD03CAFB]  (AR v2)     Copy OKTrack  6     Filename T:\working\Linga - [2009] 20 labākās dziesmas {MRCD 410}\06 - Rudens.wav     Pre-gap length  0:00:02.00     Peak level 99.9 %     Extraction speed 2.1 X     Track quality 100.0 %     Test CRC 00DB3ABF     Copy CRC 00DB3ABF     Accurately ripped (confidence 2)  [2A60D37D]  (AR v2)     Copy OKTrack  7     Filename T:\working\Linga - [2009] 20 labākās dziesmas {MRCD 410}\07 - Šeit.wav     Pre-gap length  0:00:02.00     Peak level 99.9 %     Extraction speed 2.0 X     Track quality 100.0 %     Test CRC FB827B8A     Copy CRC FB827B8A     Accurately ripped (confidence 2)  [97FF5052]  (AR v2)     Copy OKTrack  8     Filename T:\working\Linga - [2009] 20 labākās dziesmas {MRCD 410}\08 - Smaids.wav     Pre-gap length  0:00:02.00     Peak level 99.9 %     Extraction speed 2.1 X     Track quality 100.0 %     Test CRC 27632231     Copy CRC 27632231     Accurately ripped (confidence 2)  [36BDCCB6]  (AR v2)     Copy OKTrack  9     Filename T:\working\Linga - [2009] 20 labākās dziesmas {MRCD 410}\09 - Atdodies man.wav     Pre-gap length  0:00:02.00     Peak level 99.9 %     Extraction speed 2.1 X     Track quality 100.0 %     Test CRC F584D8E3     Copy CRC F584D8E3     Accurately ripped (confidence 2)  [D370B885]  (AR v2)     Copy OKTrack 10     Filename T:\working\Linga - [2009] 20 labākās dziesmas {MRCD 410}\10 - Karogs.wav     Pre-gap length  0:00:02.00     Peak level 99.9 %     Extraction speed 2.0 X     Track quality 100.0 %     Test CRC 6FD2DE0F     Copy CRC 6FD2DE0F     Accurately ripped (confidence 2)  [E4697F5A]  (AR v2)     Copy OKTrack 11     Filename T:\working\Linga - [2009] 20 labākās dziesmas {MRCD 410}\11 - Negribu lai.wav     Pre-gap length  0:00:02.00     Peak level 99.9 %     Extraction speed 2.1 X     Track quality 100.0 %     Test CRC BB69695D     Copy CRC BB69695D     Accurately ripped (confidence 2)  [A426AF05]  (AR v2)     Copy OKTrack 12     Filename T:\working\Linga - [2009] 20 labākās dziesmas {MRCD 410}\12 - Varbūt.wav     Pre-gap length  0:00:02.00     Peak level 99.9 %     Extraction speed 2.1 X     Track quality 100.0 %     Test CRC 7BD10BDA     Copy CRC 7BD10BDA     Accurately ripped (confidence 2)  [C9F37FF3]  (AR v2)     Copy OKTrack 13     Filename T:\working\Linga - [2009] 20 labākās dziesmas {MRCD 410}\13 - Nāc dejot.wav     Pre-gap length  0:00:02.00     Peak level 99.9 %     Extraction speed 2.0 X     Track quality 100.0 %     Test CRC 68FEF6EC     Copy CRC 68FEF6EC     Accurately ripped (confidence 2)  [3813E0C2]  (AR v2)     Copy OKTrack 14     Filename T:\working\Linga - [2009] 20 labākās dziesmas {MRCD 410}\14 - Krodziņā.wav     Pre-gap length  0:00:02.00     Peak level 99.9 %     Extraction speed 1.8 X     Track quality 99.9 %     Test CRC EA771F8F     Copy CRC EA771F8F     Accurately ripped (confidence 2)  [E9010D8D]  (AR v2)     Copy OKTrack 15     Filename T:\working\Linga - [2009] 20 labākās dziesmas {MRCD 410}\15 - Vējā.wav     Pre-gap length  0:00:02.00     Peak level 100.0 %     Extraction speed 2.2 X     Track quality 100.0 %     Test CRC E4AE2437     Copy CRC E4AE2437     Accurately ripped (confidence 2)  [8A536502]  (AR v2)     Copy OKTrack 16     Filename T:\working\Linga - [2009] 20 labākās dziesmas {MRCD 410}\16 - Tikai tevi.wav     Pre-gap length  0:00:02.00     Peak level 98.8 %     Extraction speed 2.0 X     Track quality 100.0 %     Test CRC F827B2D1     Copy CRC F827B2D1     Accurately ripped (confidence 2)  [AE524A81]  (AR v2)     Copy OKTrack 17     Filename T:\working\Linga - [2009] 20 labākās dziesmas {MRCD 410}\17 - P-03.wav     Pre-gap length  0:00:02.00     Peak level 100.0 %     Extraction speed 1.8 X     Track quality 99.9 %     Test CRC 04CA22AA     Copy CRC 04CA22AA     Accurately ripped (confidence 2)  [322C78CC]  (AR v2)     Copy OKTrack 18     Filename T:\working\Linga - [2009] 20 labākās dziesmas {MRCD 410}\18 - Jā vai nē.wav     Pre-gap length  0:00:02.00     Peak level 95.5 %     Extraction speed 2.1 X     Track quality 100.0 %     Test CRC 2876E3B3     Copy CRC 2876E3B3     Accurately ripped (confidence 2)  [7910ECA6]  (AR v2)     Copy OKTrack 19     Filename T:\working\Linga - [2009] 20 labākās dziesmas {MRCD 410}\19 - Spārni.wav     Pre-gap length  0:00:02.00     Peak level 98.3 %     Extraction speed 1.8 X     Track quality 99.9 %     Test CRC 8488DAB1     Copy CRC 8488DAB1     Accurately ripped (confidence 2)  [0CA435B0]  (AR v2)     Copy OKTrack 20     Filename T:\working\Linga - [2009] 20 labākās dziesmas {MRCD 410}\20 - Gan.wav     Pre-gap length  0:00:02.00     Peak level 98.9 %     Extraction speed 2.4 X     Track quality 99.9 %     Test CRC 28DC8D41     Copy CRC 28DC8D41     Accurately ripped (confidence 2)  [ADEE68EF]  (AR v2)     Copy OKAll tracks accurately rippedNo errors occurredEnd of status report---- CUETools DB Plugin V2.1.3[CTDB TOCID: E4.1en.PxmB8b4byit0S2gEfCm8-] found, Submit result: Could not connect:[1cdde736] (3/3) Accurately ripped==== Log checksum EF81C1453CD90EB93249BF05F14EF55A433F2A054CE0883FC3B6C5A8CBB7623A ====

Содержание индексной карты (.CUE)

REM GENRE RockREM DATE 2009REM DISCID 27109D14REM COMMENT "ExactAudioCopy v1.0b3"PERFORMER "Linga"TITLE "20 labākās dziesmas"FILE "01 - Spēle.wav" WAVE  TRACK 01 AUDIO    TITLE "Spēle"    PERFORMER "Linga"    ISRC LVA109800033    FLAGS DCP    INDEX 01 00:00:00  TRACK 02 AUDIO    TITLE "Pilsēta"    PERFORMER "Linga"    ISRC LVA109800034    FLAGS DCP    INDEX 00 03:13:47FILE "02 - Pilsēta.wav" WAVE    INDEX 01 00:00:00  TRACK 03 AUDIO    TITLE "Nāc man līdz"    PERFORMER "Linga"    ISRC LVA109800036    FLAGS DCP    INDEX 00 03:25:60FILE "03 - Nāc man līdz.wav" WAVE    INDEX 01 00:00:00  TRACK 04 AUDIO    TITLE "Signe melo"    PERFORMER "Linga"    ISRC LVA109800037    FLAGS DCP    INDEX 00 04:19:24FILE "04 - Signe melo.wav" WAVE    INDEX 01 00:00:00  TRACK 05 AUDIO    TITLE "Kā sāp"    PERFORMER "Linga"    ISRC LVA109800038    FLAGS DCP    INDEX 00 04:00:09FILE "05 - Kā sāp.wav" WAVE    INDEX 01 00:00:00  TRACK 06 AUDIO    TITLE "Rudens"    PERFORMER "Linga"    ISRC LVA109800039    FLAGS DCP    INDEX 00 03:27:49FILE "06 - Rudens.wav" WAVE    INDEX 01 00:00:00  TRACK 07 AUDIO    TITLE "Šeit"    PERFORMER "Linga"    ISRC LVA109800040    FLAGS DCP    INDEX 00 03:18:01FILE "07 - Šeit.wav" WAVE    INDEX 01 00:00:00  TRACK 08 AUDIO    TITLE "Smaids"    PERFORMER "Linga"    ISRC LVA109800041    FLAGS DCP    INDEX 00 02:47:69FILE "08 - Smaids.wav" WAVE    INDEX 01 00:00:00  TRACK 09 AUDIO    TITLE "Atdodies man"    PERFORMER "Linga"    ISRC LVA109800043    FLAGS DCP    INDEX 00 03:21:48FILE "09 - Atdodies man.wav" WAVE    INDEX 01 00:00:00  TRACK 10 AUDIO    TITLE "Karogs"    PERFORMER "Linga"    ISRC LVA109800045    FLAGS DCP    INDEX 00 03:07:03FILE "10 - Karogs.wav" WAVE    INDEX 01 00:00:00  TRACK 11 AUDIO    TITLE "Negribu lai"    PERFORMER "Linga"    ISRC LVA109800046    FLAGS DCP    INDEX 00 02:44:63FILE "11 - Negribu lai.wav" WAVE    INDEX 01 00:00:00  TRACK 12 AUDIO    TITLE "Varbūt"    PERFORMER "Linga"    ISRC LVA109800047    FLAGS DCP    INDEX 00 03:54:14FILE "12 - Varbūt.wav" WAVE    INDEX 01 00:00:00  TRACK 13 AUDIO    TITLE "Nāc dejot"    PERFORMER "Linga"    ISRC LVA109800048    FLAGS DCP    INDEX 00 03:56:32FILE "13 - Nāc dejot.wav" WAVE    INDEX 01 00:00:00  TRACK 14 AUDIO    TITLE "Krodziņš"    PERFORMER "Linga"    ISRC LVA109800049    FLAGS DCP    INDEX 00 02:47:68FILE "14 - Krodziņš.wav" WAVE    INDEX 01 00:00:00  TRACK 15 AUDIO    TITLE "Vējā"    PERFORMER "Linga"    ISRC LVA100900070    FLAGS DCP    INDEX 00 03:31:33FILE "15 - Vējā.wav" WAVE    INDEX 01 00:00:00  TRACK 16 AUDIO    TITLE "Tikai tevi"    PERFORMER "Linga"    ISRC LVA100900071    FLAGS DCP    INDEX 00 04:45:46FILE "16 - Tikai tevi.wav" WAVE    INDEX 01 00:00:00  TRACK 17 AUDIO    TITLE "P-03"    PERFORMER "Linga"    ISRC LVA100900059    FLAGS DCP    INDEX 00 02:55:01FILE "17 - P-03.wav" WAVE    INDEX 01 00:00:00  TRACK 18 AUDIO    TITLE "Jā vai nē"    PERFORMER "Linga"    ISRC LVA100900058    FLAGS DCP    INDEX 00 03:38:31FILE "18 - Jā vai nē.wav" WAVE    INDEX 01 00:00:00  TRACK 19 AUDIO    TITLE "Spārni"    PERFORMER "Linga"    ISRC LVA100900057    FLAGS DCP    INDEX 00 03:34:25FILE "19 - Spārni.wav" WAVE    INDEX 01 00:00:00  TRACK 20 AUDIO    TITLE "Gan"    PERFORMER "Linga"    ISRC LVA100900056    FLAGS DCP    INDEX 00 03:27:12FILE "20 - Gan.wav" WAVE    INDEX 01 00:00:00

Чтобы скачать этот контент, Вам необходимо:
1. Скачать и установить торрент-клиент [клик для Windows], (для мобильного найдите на Play Маркет).
2. Кликнуть по [Скачать]


Внимание.
Если проверка ВЫ НЕ РОБОТ - не работает, значит Вы используете устаревший браузер.
Установите актуальный браузер и повторно кликните по [Скачать]
Безопасность: торрент-клиент разрешён АВ Касперского.

[asmlocator.ru].t615130.torrent 
Торрент: Зарегистрирован [ 2019-03-02 18:30 ] · 0CF24AA51A038F1B7DF7054C491F04C7D1B774DA

Скачать .torrent

Скачать

16 KB

Статус: проверено
Скачан: 0 раз
Размер: 690 MB
terms.php
[Профиль] [ЛС]
Показать сообщения:    
Ответить на тему

Текущее время: 20-Мар 22:36

Часовой пояс: UTC ± 0



Вы не можете начинать темы
Вы не можете отвечать на сообщения
Вы не можете редактировать свои сообщения
Вы не можете удалять свои сообщения
Вы не можете голосовать в опросах
Вы не можете прикреплять файлы к сообщениям
Вы можете скачивать файлы