(Folk Metal) [CD] Ofard (Ofärd) - Words From The Dead (Reissued-2013)[EP] , 2012-2013, FLAC (image+.cue), lossless

Ответить на тему
Статистика раздачи
Размер:  92 MB   |    Зарегистрирован:  7 месяцев 19 дней   |    Скачан:  0 раз

Полного источника не было: Никогда

 
   
 
 
Автор Сообщение

star21 ®

Пол: Женский

Стаж: 3 года 11 месяцев

Сообщений: 551988

Откуда: Екатеринбург

Создавать темы 01-Мар-2019 14:30

[Цитировать]

Ofard (Ofärd) / Words From The Dead (Reissued-2013)[EP] Жанр: Folk Metal
Носитель: CD
Год издания: 2012-2013
Издатель (лейбл): Self released
Страна исполнителя (группы): Sweden
Аудиокодек: FLAC (*.flac)
Тип рипа: image+.cue
Битрейт аудио: lossless
Продолжительность: 00:12:11
Источник: Rivfader (спасибо)
Наличие сканов в содержимом раздачи: да
Треклист:
01. Words From The Dead (The Living Won't Listen)
02. Völvans spådom
03. Man Of Iron (Bathory cover)

Лог создания рипа

Exact Audio Copy V1.0 beta 3 from 29. August 2011EAC extraction logfile from 11. January 2014, 13:25Ofard / Words From The DeadUsed drive  : TSSTcorpCDDVDW SE-S084F   Adapter: 4  ID: 2Read mode               : SecureUtilize accurate stream : YesDefeat audio cache      : YesMake use of C2 pointers : NoRead offset correction                      : 6Overread into Lead-In and Lead-Out          : NoFill up missing offset samples with silence : YesDelete leading and trailing silent blocks   : NoNull samples used in CRC calculations       : YesUsed interface                              : Native Win32 interface for Win NT & 2000Used output format              : User Defined EncoderSelected bitrate                : 32 kBit/sQuality                         : HighAdd ID3 tag                     : YesCommand line compressor         : C:\Program Files (x86)\Exact Audio Copy\FLAC.EXEAdditional command line options : -8 -V -T "ARTIST=%artist%" -T "TITLE=%title%" -T "ALBUM=%albumtitle%" -T "DATE=%year%" -T "TRACKNUMBER=%tracknr%" -T "GENRE=%genre%" -T "COMMENT=%comment%" %source% -o %dest%TOC of the extracted CD     Track |   Start  |  Length  | Start sector | End sector    ---------------------------------------------------------        1  |  0:00.00 |  4:30.02 |         0    |    20251        2  |  4:30.02 |  3:53.37 |     20252    |    37763        3  |  8:23.39 |  3:47.17 |     37764    |    54805Range status and errorsSelected range     Filename D:\MUSIC\Rivfader [MeTaLMaDNeSS.TeaM]\Ofard - Words From The Dead.wav     Peak level 100.0 %     Extraction speed 1.4 X     Range quality 99.9 %     Test CRC 94DB1493     Copy CRC 94DB1493     Copy OKNo errors occurredAccurateRip summaryTrack  1  not present in databaseTrack  2  not present in databaseTrack  3  not present in databaseNone of the tracks are present in the AccurateRip databaseEnd of status report---- CUETools DB Plugin V2.1.3[CTDB TOCID: r4mX8EKCL7iJRiklPPYjIpxEMjM-] disk not present in database, Submit result: r4mX8EKCL7iJRiklPPYjIpxEMjM- has been uploaded==== Log checksum 7204EAB411ABBF654ED9DE5BA380D365282339D33A5D5CE198BD0B6140B56DCB ====

Замер динамического диапазона (DR)

foobar2000 1.3.9 / Замер динамического диапазона (DR) 1.1.1Дата отчёта:  2019-02-11 14:25:37--------------------------------------------------------------------------------Статистика для:  02-Volvans spadomКоличество сэмплов: 32225928Продолжительность: 12:11--------------------------------------------------------------------------------           Левый             ПравыйПики:                0.00 дБ     ---      0.00 дБСредний RMS:             -10.76 дБ     ---    -11.24 дБDR канала:               7.79 дБ     ---      8.02 дБ--------------------------------------------------------------------------------Реальные значения DR: DR8Частота:   44100 ГцКаналов:   2Разрядность:   16Битрейт:   935 кбит/сКодек:   FLAC================================================================================

Скриншот спектра частот

Об исполнителе (группе)

This is Sergio Ribnikov Gunnarsson's band, former leader and mastermind of Argentinean Melodic Death Metal band Warbreed. (Here appears under the pseudonym Segersäll.)
The EP was original released in 2012 only in digital format, with the first two tracks. In 2013 was re-released in physical format and throught bandcamp, under the tag Deluxe Edition, adding the Bathory cover
The cover illustrates a Völva (an alleged seer and practicant of sejd) holding a staff that resembles the Viking Age artifact (SHM inventory no. 25840) found in Klinta, Öland, in 1957. The raised stones and surrounding nature capture the essence of the typical cultural landscape seen in Southern Öland. The original painting was made by contemporary artist Martin Enrique Pelozo especially for this single.

Состав

Morten Gråfäll Nyckelharpa, Säckpipa, Programming
Segersäll Vocals, Guitars, Irish Bouzouki, Jew's harp, Hurdy-gurdy, Månmarkapipa, Shawm, Hulusi, Tin whistle

Чтобы скачать этот контент, Вам необходимо:
1. Скачать и установить торрент-клиент [клик для Windows], (для мобильного найдите на Play Маркет).
2. Кликнуть по [Скачать]


Внимание.
Если проверка ВЫ НЕ РОБОТ - не работает, значит Вы используете устаревший браузер.
Установите актуальный браузер и повторно кликните по [Скачать]
Безопасность: торрент-клиент разрешён АВ Касперского.

[asmlocator.ru].t614612.torrent 
Торрент: Зарегистрирован [ 2019-03-01 14:30 ] · 73B87E1355A7D4E6A69B0158DC6C759DBF855FB8

Скачать .torrent

Скачать

15 KB

Статус: проверено
Скачан: 0 раз
Размер: 92 MB
terms.php
[Профиль] [ЛС]
Показать сообщения:    
Ответить на тему

Текущее время: 21-Окт 14:13

Часовой пояс: UTC ± 0



Вы не можете начинать темы
Вы не можете отвечать на сообщения
Вы не можете редактировать свои сообщения
Вы не можете удалять свои сообщения
Вы не можете голосовать в опросах
Вы не можете прикреплять файлы к сообщениям
Вы можете скачивать файлы
Верим фактам, а не вранью Путина! Факт, что Правительство ведёт Россию к истреблению.
Так как численность населения падает, даже не смотря на приток эмигрантов!
Русская нация вымирает и вырождается, смешиваясь с эмигрантами!
Факт, что военных и граждан предприятий заставляют голосовать за партию Единая Россия и Путина
ПОД СТРАХОМ УВОЛЬНЕНИЯ!
Нам не нужно Правительство, блокирующее личную жизнь, интернет, нарушающее сохранность данных.
Все эти действия финансируются за счёт народа!