(House, Deep House) [CD] VA - The Best Of Wave Vol. 1 - 1997, FLAC (tracks+.cue), lossless

Reply to topic
DL-List and Torrent activity
Size:  466 MB   |    Registered:  2 months 23 days   |    Completed:  3 times

Seeder not seen: 22 minutes

 
   
 
 
Author Message

star21 ®

Gender: Female

Longevity: 3 years 6 months

Posts: 552208

Location: Екатеринбург

Post 28-Feb-2019 12:50

[Quote]

VA - The Best Of Wave Vol. 1 Жанр: House, Deep House
Носитель: CD
Страна-производитель диска (релиза): USA
Год издания: 1997
Издатель (лейбл): Wave Music
Номер по каталогу: WM50022-2
Аудиокодек: FLAC (*.flac)
Тип рипа: tracks+.cue
Битрейт аудио: lossless
Продолжительность: 01:10:38
Источник (релизер): RED
Наличие сканов в содержимом раздачи: нетТреклист:
01. Natural Flavors - Sun Juice (Summon The Spirits Mix / Body & Soul Mix) [00:05:27]
02. Abstract Truth - Get Another Plan (House Vocal) [00:07:24]
03. Fonda Rae - Living In Ecstacy (Groove Mix FK Edit) [00:07:33]
04. Floppy Sounds - Ultrasong (Studio A Mix) [00:04:40]
05. MATO - Tribe (Special Dub Version) [00:05:42]
06. Kevin Aviance - Din Da Da (Da Da Edit) [00:06:19]
07. Courtney Grey - Build Your Dreams (Bonus Beats) [00:03:43]
08. François K - Hypnodelic [00:06:10]
09. Floppy Sounds - Entertainment (Vocal Mix) (feat. Sarah Jones) [00:07:25]
10. Blue Six - Do Ya Like It? [00:06:20]
11. Ja Posse - Ting-A-Ling (Todd's House Mix) [00:05:10]
12. Courtney Grey - Build Your Dreams (Vocal) [00:04:39]
  • DJ Mix – François K

Лог создания рипа

X Lossless Decoder version 20170729 (150.3)XLD extraction logfile from 2017-10-20 21:20:25 +0100Various Artists / Va Mix - François K - The Best of Wave Music Vol. 01Used drive : MATSHITA BD-MLT UJ260AF (revision 1.00)Media type : Pressed CDRipper mode             : XLD Secure RipperDisable audio cache     : OK for the drive with a cache less than 1375KiBMake use of C2 pointers : NORead offset correction  : 103Max retry count         : 20Gap status              : Analyzed, Appended (except HTOA)TOC of the extracted CD     Track |   Start  |  Length  | Start sector | End sector    ---------------------------------------------------------        1  | 00:00:00 | 05:27:68 |         0    |    24592        2  | 05:27:68 | 07:24:66 |     24593    |    57958        3  | 12:52:59 | 07:33:03 |     57959    |    91936        4  | 20:25:62 | 04:40:54 |     91937    |   112990        5  | 25:06:41 | 05:42:30 |    112991    |   138670        6  | 30:48:71 | 06:19:47 |    138671    |   167142        7  | 37:08:43 | 03:43:21 |    167143    |   183888        8  | 40:51:64 | 06:10:13 |    183889    |   211651        9  | 47:02:02 | 07:25:61 |    211652    |   245087       10  | 54:27:63 | 06:20:42 |    245088    |   273629       11  | 60:48:30 | 05:10:56 |    273630    |   296935       12  | 65:59:11 | 04:39:35 |    296936    |   317895AccurateRip Summary    Disc not found in AccurateRip DB.All Tracks    Album gain               : -7.12 dB    Peak                     : 0.999084    Statistics        Read error                           : 0        Jitter error (maybe fixed)           : 0        Retry sector count                   : 0        Damaged sector count                 : 0Track 01    Filename : /Users/sphillips/Desktop/Various Artists - Va Mix - François K - The Best of Wave Music Vol. 01 (1997) [MP3 V0]/01 Body & Soul Mix).mp3               /Users/sphillips/Desktop/Various Artists - Va Mix - François K - The Best of Wave Music Vol. 01 (1997) [MP3 320]/01 Body & Soul Mix).mp3               /Users/sphillips/Desktop/Various Artists - Va Mix - François K - The Best of Wave Music Vol. 01 (1997) [FLAC (level 8)]/01 Body & Soul Mix).flac    Pre-gap length : 00:02:00    Track gain               : -5.71 dB    Peak                     : 0.999084    CRC32 hash (test run)    : 9708A2AF    CRC32 hash               : 9708A2AF    CRC32 hash (skip zero)   : 761022E2    AccurateRip v1 signature : 6D9C26A6    AccurateRip v2 signature : 408E26DB        ->Track not present in AccurateRip database.    Statistics        Read error                           : 0        Jitter error (maybe fixed)           : 0        Retry sector count                   : 0        Damaged sector count                 : 0Track 02    Filename : /Users/sphillips/Desktop/Various Artists - Va Mix - François K - The Best of Wave Music Vol. 01 (1997) [MP3 V0]/02 Get Another Plan (House Vocal).mp3               /Users/sphillips/Desktop/Various Artists - Va Mix - François K - The Best of Wave Music Vol. 01 (1997) [MP3 320]/02 Get Another Plan (House Vocal).mp3               /Users/sphillips/Desktop/Various Artists - Va Mix - François K - The Best of Wave Music Vol. 01 (1997) [FLAC (level 8)]/02 Get Another Plan (House Vocal).flac    Track gain               : -7.59 dB    Peak                     : 0.999084    CRC32 hash (test run)    : 8F8B8F4D    CRC32 hash               : 8F8B8F4D    CRC32 hash (skip zero)   : 3EFA8274    AccurateRip v1 signature : C3A39D91    AccurateRip v2 signature : 0CFD85C5        ->Track not present in AccurateRip database.    Statistics        Read error                           : 0        Jitter error (maybe fixed)           : 0        Retry sector count                   : 0        Damaged sector count                 : 0Track 03    Filename : /Users/sphillips/Desktop/Various Artists - Va Mix - François K - The Best of Wave Music Vol. 01 (1997) [MP3 V0]/03 Living In Ecstacy (Groove Mix FK Edit).mp3               /Users/sphillips/Desktop/Various Artists - Va Mix - François K - The Best of Wave Music Vol. 01 (1997) [MP3 320]/03 Living In Ecstacy (Groove Mix FK Edit).mp3               /Users/sphillips/Desktop/Various Artists - Va Mix - François K - The Best of Wave Music Vol. 01 (1997) [FLAC (level 8)]/03 Living In Ecstacy (Groove Mix FK Edit).flac    Track gain               : -8.76 dB    Peak                     : 0.999084    CRC32 hash (test run)    : 0B1A25A2    CRC32 hash               : 0B1A25A2    CRC32 hash (skip zero)   : 13C99E11    AccurateRip v1 signature : 74EE5B37    AccurateRip v2 signature : 46E094E7        ->Track not present in AccurateRip database.    Statistics        Read error                           : 0        Jitter error (maybe fixed)           : 0        Retry sector count                   : 0        Damaged sector count                 : 0Track 04    Filename : /Users/sphillips/Desktop/Various Artists - Va Mix - François K - The Best of Wave Music Vol. 01 (1997) [MP3 V0]/04 Living In Ecstacy (Groove Mix FK Edit).mp3               /Users/sphillips/Desktop/Various Artists - Va Mix - François K - The Best of Wave Music Vol. 01 (1997) [MP3 320]/04 Living In Ecstacy (Groove Mix FK Edit).mp3               /Users/sphillips/Desktop/Various Artists - Va Mix - François K - The Best of Wave Music Vol. 01 (1997) [FLAC (level 8)]/04 Living In Ecstacy (Groove Mix FK Edit).flac    Track gain               : -6.62 dB    Peak                     : 0.999054    CRC32 hash (test run)    : 0567A479    CRC32 hash               : 0567A479    CRC32 hash (skip zero)   : 6EB23C53    AccurateRip v1 signature : 13985EB4    AccurateRip v2 signature : E6DFAC4E        ->Track not present in AccurateRip database.    Statistics        Read error                           : 0        Jitter error (maybe fixed)           : 0        Retry sector count                   : 0        Damaged sector count                 : 0Track 05    Filename : /Users/sphillips/Desktop/Various Artists - Va Mix - François K - The Best of Wave Music Vol. 01 (1997) [MP3 V0]/05 Tribe (Special Dub Version).mp3               /Users/sphillips/Desktop/Various Artists - Va Mix - François K - The Best of Wave Music Vol. 01 (1997) [MP3 320]/05 Tribe (Special Dub Version).mp3               /Users/sphillips/Desktop/Various Artists - Va Mix - François K - The Best of Wave Music Vol. 01 (1997) [FLAC (level 8)]/05 Tribe (Special Dub Version).flac    Track gain               : -5.75 dB    Peak                     : 0.999084    CRC32 hash (test run)    : 902B1966    CRC32 hash               : 902B1966    CRC32 hash (skip zero)   : 2E7B92C5    AccurateRip v1 signature : 023038B5    AccurateRip v2 signature : 5F009FFA        ->Track not present in AccurateRip database.    Statistics        Read error                           : 0        Jitter error (maybe fixed)           : 0        Retry sector count                   : 0        Damaged sector count                 : 0Track 06    Filename : /Users/sphillips/Desktop/Various Artists - Va Mix - François K - The Best of Wave Music Vol. 01 (1997) [MP3 V0]/06 Din Da Da (Da Da Edit).mp3               /Users/sphillips/Desktop/Various Artists - Va Mix - François K - The Best of Wave Music Vol. 01 (1997) [MP3 320]/06 Din Da Da (Da Da Edit).mp3               /Users/sphillips/Desktop/Various Artists - Va Mix - François K - The Best of Wave Music Vol. 01 (1997) [FLAC (level 8)]/06 Din Da Da (Da Da Edit).flac    Track gain               : -6.98 dB    Peak                     : 0.999084    CRC32 hash (test run)    : 50AA30B1    CRC32 hash               : 50AA30B1    CRC32 hash (skip zero)   : A647DF9A    AccurateRip v1 signature : 771373B4    AccurateRip v2 signature : EB7A75DA        ->Track not present in AccurateRip database.    Statistics        Read error                           : 0        Jitter error (maybe fixed)           : 0        Retry sector count                   : 0        Damaged sector count                 : 0Track 07    Filename : /Users/sphillips/Desktop/Various Artists - Va Mix - François K - The Best of Wave Music Vol. 01 (1997) [MP3 V0]/07 Build Your Dreams (Bonus Beats).mp3               /Users/sphillips/Desktop/Various Artists - Va Mix - François K - The Best of Wave Music Vol. 01 (1997) [MP3 320]/07 Build Your Dreams (Bonus Beats).mp3               /Users/sphillips/Desktop/Various Artists - Va Mix - François K - The Best of Wave Music Vol. 01 (1997) [FLAC (level 8)]/07 Build Your Dreams (Bonus Beats).flac    Track gain               : -5.36 dB    Peak                     : 0.998962    CRC32 hash (test run)    : 1BDE048E    CRC32 hash               : 1BDE048E    CRC32 hash (skip zero)   : C675F050    AccurateRip v1 signature : D1586D01    AccurateRip v2 signature : 11DA0228        ->Track not present in AccurateRip database.    Statistics        Read error                           : 0        Jitter error (maybe fixed)           : 0        Retry sector count                   : 0        Damaged sector count                 : 0Track 08    Filename : /Users/sphillips/Desktop/Various Artists - Va Mix - François K - The Best of Wave Music Vol. 01 (1997) [MP3 V0]/08 Hypnodelic.mp3               /Users/sphillips/Desktop/Various Artists - Va Mix - François K - The Best of Wave Music Vol. 01 (1997) [MP3 320]/08 Hypnodelic.mp3               /Users/sphillips/Desktop/Various Artists - Va Mix - François K - The Best of Wave Music Vol. 01 (1997) [FLAC (level 8)]/08 Hypnodelic.flac    Track gain               : -6.62 dB    Peak                     : 0.999054    CRC32 hash (test run)    : F8C2423D    CRC32 hash               : F8C2423D    CRC32 hash (skip zero)   : A1898A75    AccurateRip v1 signature : 04774ABD    AccurateRip v2 signature : AE62D26F        ->Track not present in AccurateRip database.    Statistics        Read error                           : 0        Jitter error (maybe fixed)           : 0        Retry sector count                   : 0        Damaged sector count                 : 0Track 09    Filename : /Users/sphillips/Desktop/Various Artists - Va Mix - François K - The Best of Wave Music Vol. 01 (1997) [MP3 V0]/09 Entertainment (Vocal Mix).mp3               /Users/sphillips/Desktop/Various Artists - Va Mix - François K - The Best of Wave Music Vol. 01 (1997) [MP3 320]/09 Entertainment (Vocal Mix).mp3               /Users/sphillips/Desktop/Various Artists - Va Mix - François K - The Best of Wave Music Vol. 01 (1997) [FLAC (level 8)]/09 Entertainment (Vocal Mix).flac    Track gain               : -5.23 dB    Peak                     : 0.999084    CRC32 hash (test run)    : ACBC915D    CRC32 hash               : ACBC915D    CRC32 hash (skip zero)   : 33084664    AccurateRip v1 signature : F6103A5D    AccurateRip v2 signature : 7EB0C4D3        ->Track not present in AccurateRip database.    Statistics        Read error                           : 0        Jitter error (maybe fixed)           : 0        Retry sector count                   : 0        Damaged sector count                 : 0Track 10    Filename : /Users/sphillips/Desktop/Various Artists - Va Mix - François K - The Best of Wave Music Vol. 01 (1997) [MP3 V0]/10 Do Ya Like It.mp3               /Users/sphillips/Desktop/Various Artists - Va Mix - François K - The Best of Wave Music Vol. 01 (1997) [MP3 320]/10 Do Ya Like It.mp3               /Users/sphillips/Desktop/Various Artists - Va Mix - François K - The Best of Wave Music Vol. 01 (1997) [FLAC (level 8)]/10 Do Ya Like It.flac    Track gain               : -8.42 dB    Peak                     : 0.999054    CRC32 hash (test run)    : 1A824B41    CRC32 hash               : 1A824B41    CRC32 hash (skip zero)   : 33190ECB    AccurateRip v1 signature : 721A87B2    AccurateRip v2 signature : 5434E8B7        ->Track not present in AccurateRip database.    Statistics        Read error                           : 0        Jitter error (maybe fixed)           : 0        Retry sector count                   : 0        Damaged sector count                 : 0Track 11    Filename : /Users/sphillips/Desktop/Various Artists - Va Mix - François K - The Best of Wave Music Vol. 01 (1997) [MP3 V0]/11 Ting-A-Ling (Todd's House Mix).mp3               /Users/sphillips/Desktop/Various Artists - Va Mix - François K - The Best of Wave Music Vol. 01 (1997) [MP3 320]/11 Ting-A-Ling (Todd's House Mix).mp3               /Users/sphillips/Desktop/Various Artists - Va Mix - François K - The Best of Wave Music Vol. 01 (1997) [FLAC (level 8)]/11 Ting-A-Ling (Todd's House Mix).flac    Track gain               : -5.31 dB    Peak                     : 0.999054    CRC32 hash (test run)    : A179967F    CRC32 hash               : A179967F    CRC32 hash (skip zero)   : E47D309F    AccurateRip v1 signature : 3B6536A9    AccurateRip v2 signature : 1EDCCB29        ->Track not present in AccurateRip database.    Statistics        Read error                           : 0        Jitter error (maybe fixed)           : 0        Retry sector count                   : 0        Damaged sector count                 : 0Track 12    Filename : /Users/sphillips/Desktop/Various Artists - Va Mix - François K - The Best of Wave Music Vol. 01 (1997) [MP3 V0]/12 Build Your Dreams (Vocal).mp3               /Users/sphillips/Desktop/Various Artists - Va Mix - François K - The Best of Wave Music Vol. 01 (1997) [MP3 320]/12 Build Your Dreams (Vocal).mp3               /Users/sphillips/Desktop/Various Artists - Va Mix - François K - The Best of Wave Music Vol. 01 (1997) [FLAC (level 8)]/12 Build Your Dreams (Vocal).flac    Track gain               : -7.11 dB    Peak                     : 0.999054    CRC32 hash (test run)    : 42234A56    CRC32 hash               : 42234A56    CRC32 hash (skip zero)   : ECB62B5C    AccurateRip v1 signature : 1841DEB5    AccurateRip v2 signature : 1AD5F053        ->Track not present in AccurateRip database.    Statistics        Read error                           : 0        Jitter error (maybe fixed)           : 0        Retry sector count                   : 0        Damaged sector count                 : 0No errors occurredEnd of status report-----BEGIN XLD SIGNATURE-----0dFhq90ggyphVjqd_u4tY_ta1jpE5NxHsVR2bBQkoBCWs2R2UK.bh.4xijmHeEeN4pjVO7s3WiqK.ahhdBrd_RldF2wyqa7b90J6dp4-----END XLD SIGNATURE-----

Содержание индексной карты (.CUE)

TITLE "Va Mix - François K - The Best of Wave Music Vol. 01"REM GENRE "House"REM DATE "1997"REM DISCID A4108E0CREM REPLAYGAIN_ALBUM_GAIN -7.12 dBREM REPLAYGAIN_ALBUM_PEAK 0.999084FILE "01 Body & Soul Mix).flac" WAVE  TRACK 01 AUDIO    TITLE "Body & Soul Mix)"    PERFORMER "Natural Flavors / Sun Juice (Summon The Spirits Mix"    REM REPLAYGAIN_TRACK_GAIN -5.71 dB    REM REPLAYGAIN_TRACK_PEAK 0.999084    INDEX 01 00:00:00FILE "02 Get Another Plan (House Vocal).flac" WAVE  TRACK 02 AUDIO    TITLE "Get Another Plan (House Vocal)"    PERFORMER "Abstract Truth"    REM REPLAYGAIN_TRACK_GAIN -7.59 dB    REM REPLAYGAIN_TRACK_PEAK 0.999084    INDEX 01 00:00:00FILE "03 Living In Ecstacy (Groove Mix FK Edit).flac" WAVE  TRACK 03 AUDIO    TITLE "Living In Ecstacy (Groove Mix FK Edit)"    PERFORMER "Fonda Rae"    REM REPLAYGAIN_TRACK_GAIN -8.76 dB    REM REPLAYGAIN_TRACK_PEAK 0.999084    INDEX 01 00:00:00FILE "04 Living In Ecstacy (Groove Mix FK Edit).flac" WAVE  TRACK 04 AUDIO    TITLE "Living In Ecstacy (Groove Mix FK Edit)"    PERFORMER "Floppy Sounds"    REM REPLAYGAIN_TRACK_GAIN -6.62 dB    REM REPLAYGAIN_TRACK_PEAK 0.999054    INDEX 01 00:00:00FILE "05 Tribe (Special Dub Version).flac" WAVE  TRACK 05 AUDIO    TITLE "Tribe (Special Dub Version)"    PERFORMER "MATO"    REM REPLAYGAIN_TRACK_GAIN -5.75 dB    REM REPLAYGAIN_TRACK_PEAK 0.999084    INDEX 01 00:00:00FILE "06 Din Da Da (Da Da Edit).flac" WAVE  TRACK 06 AUDIO    TITLE "Din Da Da (Da Da Edit)"    PERFORMER "Kevin Aviance"    REM REPLAYGAIN_TRACK_GAIN -6.98 dB    REM REPLAYGAIN_TRACK_PEAK 0.999084    INDEX 01 00:00:00FILE "07 Build Your Dreams (Bonus Beats).flac" WAVE  TRACK 07 AUDIO    TITLE "Build Your Dreams (Bonus Beats)"    PERFORMER "Country Grey"    REM REPLAYGAIN_TRACK_GAIN -5.36 dB    REM REPLAYGAIN_TRACK_PEAK 0.998962    INDEX 01 00:00:00FILE "08 Hypnodelic.flac" WAVE  TRACK 08 AUDIO    TITLE "Hypnodelic"    PERFORMER "François K"    REM REPLAYGAIN_TRACK_GAIN -6.62 dB    REM REPLAYGAIN_TRACK_PEAK 0.999054    INDEX 01 00:00:00FILE "09 Entertainment (Vocal Mix).flac" WAVE  TRACK 09 AUDIO    TITLE "Entertainment (Vocal Mix)"    PERFORMER "Floppy Sounds"    REM REPLAYGAIN_TRACK_GAIN -5.23 dB    REM REPLAYGAIN_TRACK_PEAK 0.999084    INDEX 01 00:00:00FILE "10 Do Ya Like It.flac" WAVE  TRACK 10 AUDIO    TITLE "Do Ya Like It?"    PERFORMER "Blue Six"    REM REPLAYGAIN_TRACK_GAIN -8.42 dB    REM REPLAYGAIN_TRACK_PEAK 0.999054    INDEX 01 00:00:00FILE "11 Ting-A-Ling (Todd's House Mix).flac" WAVE  TRACK 11 AUDIO    TITLE "Ting-A-Ling (Todd's House Mix)"    PERFORMER "Ja Posse"    REM REPLAYGAIN_TRACK_GAIN -5.31 dB    REM REPLAYGAIN_TRACK_PEAK 0.999054    INDEX 01 00:00:00FILE "12 Build Your Dreams (Vocal).flac" WAVE  TRACK 12 AUDIO    TITLE "Build Your Dreams (Vocal)"    PERFORMER "Courtney Grey"    REM REPLAYGAIN_TRACK_GAIN -7.11 dB    REM REPLAYGAIN_TRACK_PEAK 0.999054    INDEX 01 00:00:00

To download the content you need:
1. Download and install torrent client [for Windows] or for mobile system
2. Click on [Download]
Attention.
If the test YOU are NOT a ROBOT - does not work, then You are using an outdated browser.
Install the current browser and click on [Download]
Security: torrent client is allowed by Kaspersky.

[asmlocator.ru].t614210.torrent 
Torrent: Registered [ 2019-02-28 12:50 ] · A05E2F835C7624661754BFFA56F06FC6EDF737A3

Download .torrent

Download

20 KB

Status: checked
Completed: 3 times
Size: 466 MB
terms.php
[Profile] [PM]
Display posts:    
Reply to topic

Current time is: 23-May 18:12

All times are UTC ± 0



You cannot post new topics in this forum
You cannot reply to topics in this forum
You cannot edit your posts in this forum
You cannot delete your posts in this forum
You cannot vote in polls in this forum
You cannot attach files in this forum
You can download files in this forum