Гранд Тур / The Grand Tour / Сезон:3 / Серии: 5 из 13 [2019, Авто шоу, WEB-DL 1080p] MVOx9+ Original +Sub(Rus,Eng)

Reply to topic
DL-List and Torrent activity
Size:  26.03 GB   |    Registered:  3 months 3 days   |    Completed:  0 times

Seeder not seen: Never

 
   
 
 
Author Message

star21 ®

Gender: Female

Longevity: 3 years 6 months

Posts: 552208

Location: Екатеринбург

Post 21-Feb-2019 04:05

[Quote]

Гранд Тур / The Grand Tour Год выпуска: 2017
Страна: Великобритания и США
Жанр: Авто-шоу,документальный, ток-шоу, комедия.
Продолжительность:~01:10:00
Перевод:
Перевод #1: Профессиональный Многоголосый закадровый -AlexFilm
Перевод #2:Профессиональный Многоголосый закадровый - Jaskier
Перевод #3:Профессиональный Многоголосый закадровый - NewStudio(1-2 серия)*
Перевод #4:Любительский Многоголосый закадровый -Jetvis Studio (C голосом Кларксона с России-2)
Перевод #5:Любительский Многоголосый закадровый -SunshineStudio
Перевод #6:Любительский Многоголосый закадровый - Gears Media
Перевод #7:Любительский Многоголосый закадровый - IdeaFilm
Перевод #8:Любительский Многоголосый закадровый - KinoGolos
Перевод #9:Любительский Многоголосый закадровый - ColdFilm
Субтитры: Русские(полные amazon,сноски от NewStudio ) и АнглийскиеРежиссер:Брайан Клейн, Фил Чурчуорд, Найджел Симпкисс
Продюсер: Энди Уилман, Алекс Рентон, Грант Уордроп
Композитор: Пол Леонард-Морган
Художник: Джонатан Пол Грин, Джеймс Роуэлл, Саймон Киммел
Монтаж: Ник БрэдфордВ ролях: Ричард Хаммонд / Richard Hammond, Джереми Кларксон / Jeremy Clarkson, Джеймс Мэй / James MayОписание: Автомобильное телешоу, созданное бывшими ведущими Топ гир — Джереми Кларксоном, Ричардом Хаммондом и Джеймсом Мэйем. Качество: WEB-DL
Формат: MKV
Видео кодек: AVC
Аудио кодеk: AC3 ,E-AC3
Видео: AVC, 1920x1080, 25 fps, ~8500 kbps avg, ~0.155 bit/pixel
Аудио:
Аудио #1: 48 kHz, AC3 Dolby Digital, 3/2 (L,C,R,l,r) + LFE ch, ~384.00 kbps - AlexFilm
Аудио #2: 48 kHz, AC3 Dolby Digital , 3/2 (L,C,R,l,r) + LFE ch, ~384 kbps - Jaskier
Аудио #3: 48 kHz, AC3 Dolby Digital , 3/2 (L,C,R,l,r) + LFE ch, ~384 kbps - NewStudio(1-2 серия)*
Аудио #4: 48 kHz, AC3 Dolby Digital , 2/0 (L,R) ch, ~192 kbps - Jetvis Studio (C голосом Кларксона с Россия-2)
Аудио #5: 48 kHz, AC3 Dolby Digital , 2/0 (L,R) ch, ~192 kbps - SunshineStudio
Аудио #6: 48 kHz, AC3 Dolby Digital , 2/0 (L,R) ch, ~384 kbps -Gears Media
Аудио #7: 48 kHz, AC3 Dolby Digital, 3/2 (L,C,R,l,r) + LFE ch, ~384.00 kbps - IdeaFilm
Аудио #8: 48 kHz, AC3 Dolby Digital , 2/0 (L,R) ch, ~256 kbps - KinoGolos
Аудио #9: 48 kHz, AC3 Dolby Digital , 2/0 (L,R) ch, ~192 kbps - ColdFilm
Аудио #10: 48 kHz,E-АС3 Dolby Digital Plus, 3/2 (L,C,R,l,r) + LFE ch, ~640.00 kbps -Original
Присутствует Навигация по главам

Дополнительная информация об переводах

Озвучка: AlexFilm
Перевод: Константин Кривоногов
Монтаж и сведение звука: Алексей Фокин
Роли озвучивали:Андрей Стакионис, Константин ,Погодаев, Дмитрий, Лунёв,Рустам ШайхиевОзвучка: Jetvis Studio
Перевод: doc_ravik
Роли озвучивали:Иван Назаров, Максим Меркулов, Михаил Вельмискин.
А также: Никита Пугач, Анастасия ДомнинаОзвучка: Jaskier
Роли озвучивали: Михаил Кшиштовский,Станислав Концевич и другие

МедиаИнфо

Код:
Общее
Уникальный идентификатор : 235045721040168062063600672553112913885 (0xB0D428C44A064862B17FAB496EFB47DD)
Полное имя : G:\Grand Tour S03\01.mkv
Формат : Matroska
Версия формата : Version 2
Размер файла : 5,60 Гбайт
Продолжительность : 1 ч. 8 м.
Общий поток : 11,6 Мбит/сек
Дата кодирования : UTC 2019-01-29 16:01:53
Программа кодирования : mkvmerge v7.8.0 ('River Man') 32bit built on Apr 3 2015 12:11:22
Библиотека кодирования : libebml v1.3.1 + libmatroska v1.4.2Видео
Идентификатор : 1
Формат : AVC
Формат/Информация : Advanced Video Codec
Профиль формата : High@L4
Настройки формата : CABAC / 4 Ref Frames
Параметр CABAC формата : Да
Параметр RefFrames формата : 4 кадра
Идентификатор кодека : V_MPEG4/ISO/AVC
Продолжительность : 1 ч. 8 м.
Битрейт : 8019 Кбит/сек
Ширина : 1920 пикселей
Высота : 1080 пикселей
Соотношение сторон : 16:9
Режим частоты кадров : Постоянный
Частота кадров : 25,000 кадров/сек
Цветовое пространство : YUV
Субдискретизация насыщенности : 4:2:0
Битовая глубина : 8 бит
Тип развёртки : Прогрессивная
Бит/(Пиксели*Кадры) : 0.155
Размер потока : 3,86 Гбайт (69%)
Заголовок : Release by S.c.a.r.a.b.e.y
Default : Да
Forced : Нет
Цветовой диапазон : Limited
Основные цвета : BT.709
Характеристики трансфера : BT.709
Коэффициенты матрицы : BT.709Аудио #1
Идентификатор : 2
Формат : AC-3
Формат/Информация : Audio Coding 3
Идентификатор кодека : A_AC3
Продолжительность : 1 ч. 8 м.
Вид битрейта : Постоянный
Битрейт : 384 Кбит/сек
Каналы : 6 каналов
Расположение каналов : Front: L C R, Side: L R, LFE
Частота : 48,0 КГц
Частота кадров : 31,250 кадров/сек (1536 SPF)
Битовая глубина : 16 бит
Метод сжатия : С потерями
Размер потока : 189 Мбайт (3%)
Заголовок : AlexFilm
Язык : Russian
ServiceKind/String : Complete Main
Default : Нет
Forced : НетАудио #2
Идентификатор : 3
Формат : AC-3
Формат/Информация : Audio Coding 3
Идентификатор кодека : A_AC3
Продолжительность : 1 ч. 8 м.
Вид битрейта : Постоянный
Битрейт : 384 Кбит/сек
Каналы : 6 каналов
Расположение каналов : Front: L C R, Side: L R, LFE
Частота : 48,0 КГц
Частота кадров : 31,250 кадров/сек (1536 SPF)
Битовая глубина : 16 бит
Метод сжатия : С потерями
Размер потока : 189 Мбайт (3%)
Заголовок : Jaskier
Язык : Russian
ServiceKind/String : Complete Main
Default : Да
Forced : НетАудио #3
Идентификатор : 4
Формат : AC-3
Формат/Информация : Audio Coding 3
Идентификатор кодека : A_AC3
Продолжительность : 1 ч. 8 м.
Вид битрейта : Постоянный
Битрейт : 384 Кбит/сек
Каналы : 6 каналов
Расположение каналов : Front: L C R, Side: L R, LFE
Частота : 48,0 КГц
Частота кадров : 31,250 кадров/сек (1536 SPF)
Битовая глубина : 16 бит
Метод сжатия : С потерями
Размер потока : 189 Мбайт (3%)
Заголовок : NewStudio
Язык : Russian
ServiceKind/String : Complete Main
Default : Нет
Forced : НетАудио #4
Идентификатор : 5
Формат : AC-3
Формат/Информация : Audio Coding 3
Идентификатор кодека : A_AC3
Продолжительность : 1 ч. 8 м.
Вид битрейта : Постоянный
Битрейт : 192 Кбит/сек
Каналы : 2 канала
Расположение каналов : Front: L R
Частота : 48,0 КГц
Частота кадров : 31,250 кадров/сек (1536 SPF)
Битовая глубина : 16 бит
Метод сжатия : С потерями
Размер потока : 94,6 Мбайт (2%)
Заголовок : Jetvis
Язык : Russian
ServiceKind/String : Complete Main
Default : Нет
Forced : НетАудио #5
Идентификатор : 6
Формат : AC-3
Формат/Информация : Audio Coding 3
Идентификатор кодека : A_AC3
Продолжительность : 1 ч. 8 м.
Вид битрейта : Постоянный
Битрейт : 192 Кбит/сек
Каналы : 2 канала
Расположение каналов : Front: L R
Частота : 48,0 КГц
Частота кадров : 31,250 кадров/сек (1536 SPF)
Битовая глубина : 16 бит
Метод сжатия : С потерями
Размер потока : 94,6 Мбайт (2%)
Заголовок : SunshineStudio
Язык : Russian
ServiceKind/String : Complete Main
Default : Нет
Forced : НетАудио #6
Идентификатор : 7
Формат : AC-3
Формат/Информация : Audio Coding 3
Идентификатор кодека : A_AC3
Продолжительность : 1 ч. 8 м.
Вид битрейта : Постоянный
Битрейт : 384 Кбит/сек
Каналы : 2 канала
Расположение каналов : Front: L R
Частота : 48,0 КГц
Частота кадров : 31,250 кадров/сек (1536 SPF)
Битовая глубина : 16 бит
Метод сжатия : С потерями
Размер потока : 189 Мбайт (3%)
Заголовок : Gears Media
Язык : Russian
ServiceKind/String : Complete Main
Default : Нет
Forced : НетАудио #7
Идентификатор : 8
Формат : AC-3
Формат/Информация : Audio Coding 3
Идентификатор кодека : A_AC3
Продолжительность : 1 ч. 8 м.
Вид битрейта : Постоянный
Битрейт : 384 Кбит/сек
Каналы : 6 каналов
Расположение каналов : Front: L C R, Side: L R, LFE
Частота : 48,0 КГц
Частота кадров : 31,250 кадров/сек (1536 SPF)
Битовая глубина : 16 бит
Метод сжатия : С потерями
Размер потока : 189 Мбайт (3%)
Заголовок : IdeaFilm
Язык : Russian
ServiceKind/String : Complete Main
Default : Нет
Forced : НетАудио #8
Идентификатор : 9
Формат : AC-3
Формат/Информация : Audio Coding 3
Идентификатор кодека : A_AC3
Продолжительность : 1 ч. 8 м.
Вид битрейта : Постоянный
Битрейт : 256 Кбит/сек
Каналы : 2 канала
Расположение каналов : Front: L R
Частота : 48,0 КГц
Частота кадров : 31,250 кадров/сек (1536 SPF)
Битовая глубина : 16 бит
Метод сжатия : С потерями
Размер потока : 126 Мбайт (2%)
Заголовок : KinoGolos
Язык : Russian
ServiceKind/String : Complete Main
Default : Нет
Forced : НетАудио #9
Идентификатор : 10
Формат : AC-3
Формат/Информация : Audio Coding 3
Идентификатор кодека : A_AC3
Продолжительность : 1 ч. 8 м.
Вид битрейта : Постоянный
Битрейт : 192 Кбит/сек
Каналы : 2 канала
Расположение каналов : Front: L R
Частота : 48,0 КГц
Частота кадров : 31,250 кадров/сек (1536 SPF)
Битовая глубина : 16 бит
Метод сжатия : С потерями
Размер потока : 94,6 Мбайт (2%)
Заголовок : ColdFilm
Язык : Russian
ServiceKind/String : Complete Main
Default : Нет
Forced : НетАудио #10
Идентификатор : 11
Формат : AC-3
Формат/Информация : Audio Coding 3
Идентификатор кодека : A_AC3
Продолжительность : 1 ч. 8 м.
Вид битрейта : Постоянный
Битрейт : 640 Кбит/сек
Каналы : 6 каналов
Расположение каналов : Front: L C R, Side: L R, LFE
Частота : 48,0 КГц
Частота кадров : 31,250 кадров/сек (1536 SPF)
Битовая глубина : 16 бит
Метод сжатия : С потерями
Размер потока : 315 Мбайт (5%)
Язык : English
ServiceKind/String : Complete Main
Default : Нет
Forced : НетТекст #1
Идентификатор : 12
Формат : UTF-8
Идентификатор кодека : S_TEXT/UTF8
Идентификатор кодека/Информация : UTF-8 Plain Text
Заголовок : Full
Язык : Russian
Default : Нет
Forced : НетТекст #2
Идентификатор : 13
Формат : UTF-8
Идентификатор кодека : S_TEXT/UTF8
Идентификатор кодека/Информация : UTF-8 Plain Text
Заголовок : Full
Язык : English
Default : Нет
Forced : НетТекст #3
Идентификатор : 14
Формат : UTF-8
Идентификатор кодека : S_TEXT/UTF8
Идентификатор кодека/Информация : UTF-8 Plain Text
Заголовок : SDH
Язык : English
Default : Нет
Forced : НетТекст #4
Идентификатор : 15
Формат : UTF-8
Идентификатор кодека : S_TEXT/UTF8
Идентификатор кодека/Информация : UTF-8 Plain Text
Заголовок : RuS Music
Язык : Russian
Default : Да
Forced : ДаТекст #5
Идентификатор : 16
Формат : ASS
Идентификатор кодека : S_TEXT/ASS
Идентификатор кодека/Информация : Advanced Sub Station Alpha
Метод сжатия : Без потерь
Заголовок : сноска
Язык : Russian
Default : Нет
Forced : НетМеню
00:00:00.000 : en:Amazon Original
00:00:05.000 : en:Title Sequence
00:00:55.000 : ru:Чего ожидать в этом сезоне
00:03:37.000 : ru:Гранд Тур отправляется в Мотор Сити
00:10:31.000 : ru:Радости от мускл каров
00:12:25.000 : ru:Дрэг-рэйсинг по улицам Детройта
00:18:16.000 : ru:Кто сможет сделать больше шума
00:24:58.000 : ru:Намерения найти еду
00:27:33.000 : ru:Разговорная улица
00:33:59.000 : en:Джереми испытывает новый McLaren P1 и Сенну
00:42:03.000 : en:Джереми делает еще одну ставку
00:46:13.000 : en:Время боллида на гоночной трассе
00:53:36.000 : en:Демон vs Экзорциста vs Синей Монахини
00:58:20.000 : ru:Джереми дает зрителям возможность выбирать
01:00:20.000 : en:Добро против Зла
01:06:35.000 : ru:Чем отличает мускл кар ?
01:08:18.000 : en:End Credits

Скриншоты


To download the content you need:
1. Download and install torrent client [for Windows] or for mobile system
2. Click on [Download]
Attention.
If the test YOU are NOT a ROBOT - does not work, then You are using an outdated browser.
Install the current browser and click on [Download]
Security: torrent client is allowed by Kaspersky.

[asmlocator.ru].t612421.torrent 
Torrent: Registered [ 2019-02-21 04:05 ] · 86BDD490ECB427A4ABFFFFBF298A1D27BC8C2002

Download .torrent

Download

131 KB

Status: checked
Completed: 0 times
Size: 26.03 GB
terms.php
[Profile] [PM]
Display posts:    
Reply to topic

Current time is: 24-May 14:11

All times are UTC ± 0



You cannot post new topics in this forum
You cannot reply to topics in this forum
You cannot edit your posts in this forum
You cannot delete your posts in this forum
You cannot vote in polls in this forum
You cannot attach files in this forum
You can download files in this forum