Принц-дракон / The Dragon Prince / Сезон: 2 / Серии: 1-9 из 9 (Джастин Ричмонд) [2019, США, Мультсериал, фантастика, WEB-DL 1080p] Original + Sub (Rus, Eng)

Reply to topic
DL-List and Torrent activity
Size:  6.24 GB   |    Registered:  3 months 8 days   |    Completed:  4 times

Seeder not seen: 41 minute

 
   
 
 
Author Message

star21 ®

Gender: Female

Longevity: 3 years 6 months

Posts: 552208

Location: Екатеринбург

Post 15-Feb-2019 16:35

[Quote]

Принц-дракон / The Dragon Prince Страна: США
Жанр: Мультсериал, фантастика
Продолжительность серии: 00:24:00
Год выпуска: 2019
Перевод: Субтитры
Русские субтитры: естьРежиссёр: Джастин Ричмонд
Роли озвучивали: Паула Берроуз, Джек Де Сена, Саша РодженОписание: Сюжет истории пойдет о двух принцах, которые объединят свои силы с эльфом, которому было поручено убить их. Вместе они начнут своё удивительное путешествие, чтобы улучшить мир людей. В мультсериале вы увидите много экшена, сражений, невероятные приключения героев мультика, а также драконов.Список серий:
1. A Secret and a Spark
2. Half Moon Lies
3. Smoke and Mirrors
4. Voyage of the Ruthless
5. Breaking the Seal
6. Heart of a Titan
7. Fire and Fury
8. The Book of Destiny
9. BreatheДоп. информация: если позже нужно будет добавить озвучку от AlexFilm, стукните мне в ЛС
(сейчас её пока что нету)Семпл: http://multi-up.com/1223710Качество: WEB-DL 1080p
Формат: MKV
Видео: AVC, 1920x1080, 23.976 fps, ~4000 kbps
Аудио: 48 kHz, EAC3, 6 ch, 448 kbps | Eng
Субтитры: русские, английские вшитые

Подробные технические данные

ОбщееУникальный идентификатор : 307594852786632929849530956079243099272 (0xE7689D202B5D6608C4AC4D3F7BE27C88)Полное имя : D:\Downloads\The.Dragon.Prince.S02.1080p.WEB.x264-STRiFE[rartv]\The Dragon Prince\The Dragon Prince s02e01 A Secret and a Spark.mkvФормат : MatroskaВерсия формата : Version 4Размер файла : 706 МбайтПродолжительность : 26 м. 4 с.Режим общего битрейта : ПеременныйОбщий поток : 3786 Кбит/секДата кодирования : UTC 2019-02-15 15:25:12Программа кодирования : mkvmerge v27.0.0 ('Metropolis') 64-bitБиблиотека кодирования : libebml v1.3.6 + libmatroska v1.4.9ВидеоИдентификатор : 1Формат : AVCФормат/Информация : Advanced Video CodecПрофиль формата : Main@L4Настройки формата : CABAC / 3 Ref FramesПараметр CABAC формата : ДаПараметр RefFrames формата : 3 кадраИдентификатор кодека : V_MPEG4/ISO/AVCПродолжительность : 26 м. 4 с.Вид битрейта : ПеременныйБитрейт : 3480 Кбит/секМаксимальный битрейт : 5220 Кбит/секШирина : 1920 пикселейВысота : 1080 пикселейСоотношение сторон : 16:9Режим частоты кадров : ПостоянныйЧастота кадров : 23,976 (24000/1001) кадра/секЦветовое пространство : YUVСубдискретизация насыщенности : 4:2:0Битовая глубина : 8 битТип развёртки : ПрогрессивнаяБит/(Пиксели*Кадры) : 0.070Размер потока : 622 Мбайт (88%)Библиотека кодирования : x264 core 148 r2715 7e75228Настройки программы : cabac=1 / ref=3 / deblock=1:0:0 / analyse=0x1:0x111 / me=umh / subme=10 / psy=1 / psy_rd=1.00:0.00 / mixed_ref=1 / me_range=24 / chroma_me=1 / trellis=2 / 8x8dct=0 / cqm=0 / deadzone=21,11 / fast_pskip=1 / chroma_qp_offset=-2 / threads=8 / lookahead_threads=1 / sliced_threads=0 / nr=0 / decimate=1 / interlaced=0 / bluray_compat=0 / stitchable=1 / constrained_intra=0 / bframes=2 / b_pyramid=0 / b_adapt=2 / b_bias=0 / direct=3 / weightb=1 / open_gop=0 / weightp=2 / keyint=48 / keyint_min=25 / scenecut=0 / intra_refresh=0 / rc_lookahead=48 / rc=2pass / mbtree=1 / bitrate=3480 / ratetol=1.0 / qcomp=0.50 / qpmin=6 / qpmax=51 / qpstep=4 / cplxblur=20.0 / qblur=0.5 / vbv_maxrate=5220 / vbv_bufsize=6960 / nal_hrd=vbr / filler=0 / ip_ratio=1.40 / aq=1:1.00Default : ДаForced : НетАудиоИдентификатор : 2Формат : E-AC-3Формат/Информация : Enhanced AC-3Коммерческое название : Dolby Digital PlusИдентификатор кодека : A_EAC3Продолжительность : 26 м. 4 с.Вид битрейта : ПостоянныйБитрейт : 448 Кбит/секКаналы : 6 каналовChannel layout : L R C LFE Ls RsЧастота : 48,0 КГцЧастота кадров : 31,250 кадров/сек (1536 SPF)Метод сжатия : С потерямиРазмер потока : 83,6 Мбайт (12%)Язык : EnglishServiceKind/String : Complete MainDefault : ДаForced : НетТекст #1Идентификатор : 3Формат : UTF-8Идентификатор кодека : S_TEXT/UTF8Идентификатор кодека/Информация : UTF-8 Plain TextПродолжительность : 23 м. 47 с.Битрейт : 67 бит/секElementCount : 311Размер потока : 11,7 Кбайт (0%)Язык : EnglishDefault : НетForced : НетТекст #2Идентификатор : 4Формат : UTF-8Идентификатор кодека : S_TEXT/UTF8Идентификатор кодека/Информация : UTF-8 Plain TextПродолжительность : 24 м. 36 с.Битрейт : 83 бит/секElementCount : 345Размер потока : 15,1 Кбайт (0%)Язык : RussianDefault : НетForced : Нет

Скриншоты

Предыдущие и альтернативные раздачиТЫКАЕМ СПАСИБО, ПОМОГАЕМ РАЗДАВАТЬ!

To download the content you need:
1. Download and install torrent client [for Windows] or for mobile system
2. Click on [Download]
Attention.
If the test YOU are NOT a ROBOT - does not work, then You are using an outdated browser.
Install the current browser and click on [Download]
Security: torrent client is allowed by Kaspersky.

[asmlocator.ru].t611554.torrent 
Torrent: Registered [ 2019-02-15 16:35 ] · 82638DAB225FDF2D0FAA49E62795352AAF02D742

Download .torrent

Download

17 KB

Status: checked
Completed: 4 times
Size: 6.24 GB
terms.php
[Profile] [PM]
Display posts:    
Reply to topic

Current time is: 24-May 14:11

All times are UTC ± 0



You cannot post new topics in this forum
You cannot reply to topics in this forum
You cannot edit your posts in this forum
You cannot delete your posts in this forum
You cannot vote in polls in this forum
You cannot attach files in this forum
You can download files in this forum