Сестры (Сергей Бодров мл.) [2001, боевик, драма, криминал, DVDRip-AVC]

Ответить на тему
Статистика раздачи
Размер:  1,09 GB   |    Зарегистрирован:  3 года   |    Скачан:  0 раз

Полного источника не было: Никогда

 
   
 
 
Автор Сообщение

star21 ®

Пол: Женский

Стаж: 3 года

Сообщений: 552916

Откуда: Екатеринбург

Создавать темы 11-Ноя-2015 07:24

[Цитировать]

Сестры (Сергей Бодров мл.) [2001, боевик, драма, криминал, DVDRip-AVC] Торрент
Сестры
Формат: DVDRip-AVC, MKV, H.264, AC3
Режиссер: Сергей Бодров мл.
Жанр: боевик, драма, криминал
Продолжительность: 01:20:08
Год выпуска: 2001
В ролях: Оксана Акиньшина, Катя Горина, Роман Агеев, Татьяна Колганова, Дмитрий Орлов, Кирилл Пирогов, Александр Баширов, Андрей Краско, Татьяна Ткач, Сергей Бодров мл.
Описание: В этих девочках течет одна кровь, но они ненавидят друг друга. Дине — восемь, она играет на скрипке и мечтает стать актрисой. Свете — уже тринадцать, она отлично стреляет и хочет стать снайпером в Чечне. Эти юные существа вынуждены жить в мире, где царят волчьи порядки. В мире, где крадут и убивают детей, а закон — всего лишь бледный и бессильный призрак…
Вышедший на свободу отец Дины оказывается в тяжёлой ситуации: «коллеги» из братвы обвиняют его в краже «общака». Бандиты собираются похитить его ребёнка, и он вынужден прятать обеих девочек. Но убежище оказывается ненадёжным, и детям приходится бежать. Бежать, куда глаза глядят. Без денег, без родных и друзей…
Всего за несколько страшных дней двум маленьким беззащитным девочкам предстоит столкнуться со всеми ужасами нашей жестокой жизни. Им придется повзрослеть на много лет. Но девочки узнают, что существует единственная вещь, которая сильнее зла и несправедливости, которая может спасти этот несовершенный мир. Ее имя — Любовь. И девочки полюбят друг друга. Они станут сестрами.


Видео: 720x416@792x416 (1,904), 25.000 fps, AVC (x264), , ~1501kbps avg,0.200 bit/pixel
Аудио: 48.0 kHz, AC3, (Front: L C R, Side: L R, LFE) , 6 ch ~448Kbps avg

Mediainfo

Общее
Уникальный идентификатор : 254296282725974060080858365302536906848 (0xBF4FAEBC919D221E85195F4873FBA860)
Полное имя : D:\Сестры.2001.DVDRip-AVC.x264.AC3.mkv
Формат : Matroska
Размер файла : 1,09 Гбайт
Продолжительность : 1 ч. 20 м.
Общий поток : 1951 Кбит/сек
Дата кодирования : UTC 2009-08-04 16:32:22
Программа кодирования : mkvmerge v2.9.7 ('Tenderness') built on Jul 1 2009 18:43:35
Библиотека кодирования : libebml v0.7.7 + libmatroska v0.8.1
Видео
Идентификатор : 1
Формат : AVC
Формат/Информация : Advanced Video Codec
Профиль формата :
Параметр CABAC формата : Да
Параметр ReFrames формата : 9 кадров
Идентификатор кодека : V_MPEG4/ISO/AVC
Продолжительность : 1 ч. 20 м.
Битрейт : 1501 Кбит/сек
Ширина : 720 пикс.
Высота : 416 пикс.
Соотношение сторон : 1,904
Соотношение сторон в оригинале : 1,905
Частота кадров : 25,000 кадр/сек
Цветовое пространство : YUV
Подвыборка цветности : 4:2:0
Битовая глубина : 8 бит
Тип развёртки : Прогрессивная
Бит/(Пиксели*Кадры) : 0.200
Размер потока : 839 Мбайт (75%)
Заголовок : Сестры (2001)
Библиотека кодирования : x264 core 68 r1183M f21daff
Настройки программы : cabac=1 / ref=9 / deblock=1:-1:-1 / analyse=0x3:0x113 / me=umh / subme=9 / psy_rd=1.0:0.0 / mixed_ref=1 / me_range=16 / chroma_me=1 / trellis=2 / 8x8dct=1 / cqm=0 / deadzone=21,11 / chroma_qp_offset=-2 / threads=6 / nr=0 / decimate=0 / mbaff=0 / bframes=9 / b_pyramid=1 / b_adapt=2 / b_bias=0 / direct=1 / wpredb=1 / keyint=250 / keyint_min=25 / scenecut=40 / rc=2pass / bitrate=1501 / ratetol=1.0 / qcomp=0.60 / qpmin=10 / qpmax=51 / qpstep=4 / cplxblur=20.0 / qblur=0.5 / ip_ratio=1.40 / pb_ratio=1.30 / aq=1:1.00
Язык : Russian
Аудио
Идентификатор : 2
Формат : AC-3
Формат/Информация : Audio Coding 3
Расширение режима : CM (complete main)
Идентификатор кодека : A_AC3
Продолжительность : 1 ч. 20 м.
Вид битрейта : Постоянный
Битрейт : 448 Кбит/сек
Каналы : 6 каналов
Расположение каналов : Front: L C R, Side: L R, LFE
Частота : 48,0 КГц
Битовая глубина : 16 бит
Метод сжатия : С потерями
Размер потока : 257 Мбайт (23%)
Язык : Russian

Знаете ли вы, что...

Своей датой рождения Света называет 19 апреля 1987 года. Именно в этот день и в этом году родилась исполнительница её роли Оксана Акиньшина.

Для скачки контента: [Установить программу-клиент] и кликнуть по - СкачатьБезопасность: клиент проверен АВ Касперского

[asmlocator.ru].t61.torrent 
Торрент: Зарегистрирован [ 2015-11-11 07:23 ] · B94335CE51D0846126993AC20B49A78071B4303E

Скачать .torrent

Скачать

12 KB

Статус: проверено
Скачан: 0 раз
Размер: 1,09 GB
terms.php
[Профиль] [ЛС]
Показать сообщения:    
Ответить на тему

Текущее время: 18-Ноя 06:55

Часовой пояс: UTC ± 0



Вы не можете начинать темы
Вы не можете отвечать на сообщения
Вы не можете редактировать свои сообщения
Вы не можете удалять свои сообщения
Вы не можете голосовать в опросах
Вы не можете прикреплять файлы к сообщениям
Вы можете скачивать файлы