В далёком сорок пятом... Встречи на Эльбе (Мира Тодоровская, Петро Алексовски) [2015, Россия, драма, военный, HDTVRip] Original Rus

Ответить на тему
Статистика раздачи
Размер:  1,46 GB   |    Зарегистрирован:  9 месяцев 4 дня   |    Скачан:  6 раз

Полного источника не было: 26 дней

 
   
 
 
Автор Сообщение

star21 ®

Пол: Женский

Стаж: 4 года

Сообщений: 551946

Откуда: Екатеринбург

Создавать темы 10-Фев-2019 21:00

[Цитировать]

В далёком сорок пятом... Встречи на Эльбе Страна: Россия
Студия: Кинокомпания «Мирабель», Фонд Кино
Жанр: драма, военный
Год выпуска: 2015
Продолжительность: 01:36:29Режиссер: Мира Тодоровская, Петро АлексовскиВ ролях: Илья Ильиных, Мария Павловская (II), Майкл Шиллер, Нил Кропалов, Люцина Шерок, Евгений Миронкин, Евгений Серзин, Ирина Пегова, Илья Морозов (II), Адам Турчик, Владимир Яковлев (II), Ян Александрович-Краско, Эва Шикульска, Магдалена Беганьская, Рафал Сисицкий, Анджей Клак, Давид Прайс (II), Джим Вильямс, Якуб Гель, Роберт Вжосек, Дмитрий ПодадаевОписание: Лейтенант Юрий Никитин, несмотря на молодой возраст, назначен комендантом маленького городка Иерихов на Эльбе. При этом Никитин должен принять на себя достаточно серьезные обязанности по налаживанию жизни в городке. Четырехэтажный дом — комендатура Иерихова. Дом раньше принадлежал Гансу Лемке — хозяину свинофермы, пекарни и сыроварни. Горожане думают, что Лемке погиб, но он жив. Он прячется в штольне и через оптический прицел снайперской винтовки наблюдает за всем, что происходит в городке, — особенно за молодым офицером, обосновавшимся в его доме.Дополнительная информация:
Автор релиза -
Источник для рипа - HDTV 1080i TS - моя запись с канала "Наш Детектив HD"

[imdb]http://www.imdb.com/title/tt5125310[/imdb]
Тип релиза: HDTVRip
Контейнер: AVIВидео: XviD, 720x384 (1,85:1), 1712 kbps, 25 fps, 0.248 bit/pixel
Аудио: Русский АС3, 48000 Гц, 6ch, 448 kbps

MediaInfo

ОбщееПолное имя                               : D:\В.далеком.сорок.пятом.Встречи.на.Эльбе.2015.HDTVRip-ylnian.aviФормат                                   : AVIФормат/Информация                        : Audio Video InterleaveРазмер файла                             : 1,46 ГбайтПродолжительность                        : 1 ч. 36 м.Общий поток                              : 2170 Кбит/секПрограмма кодирования                    : VirtualDubMod 1.5.10.3 | www.virtualdub-fr.org || (build 2550/release)Библиотека кодирования                   : VirtualDubMod build 2550/releaseВидеоИдентификатор                            : 0Формат                                   : MPEG-4 VisualПрофиль формата                          : Advanced Simple@L5Настройки формата                        : BVOP1 / Custom MatrixПараметр BVOP формата                    : 1Параметр QPel формата                    : НетПараметр GMC формата                     : Без точки переходаПараметр матрицы формата                 : ВыборочнаяИдентификатор кодека                     : XVIDИдентификатор кодека/Подсказка           : XviDПродолжительность                        : 1 ч. 36 м.Битрейт                                  : 1712 Кбит/секШирина                                   : 720 пикселейВысота                                   : 384 пикселяСоотношение сторон                       : 1,85:1Частота кадров                           : 25,000 кадров/секЦветовое пространство                    : YUVСубдискретизация насыщенности            : 4:2:0Битовая глубина                          : 8 битТип развёртки                            : ПрогрессивнаяМетод сжатия                             : С потерямиБит/(Пиксели*Кадры)                      : 0.248Размер потока                            : 1,15 Гбайт (79%)Библиотека кодирования                   : XviD 67АудиоИдентификатор                            : 1Формат                                   : AC-3Формат/Информация                        : Audio Coding 3Коммерческое название                    : Dolby DigitalИдентификатор кодека                     : 2000Продолжительность                        : 1 ч. 36 м.Вид битрейта                             : ПостоянныйБитрейт                                  : 448 Кбит/секКаналы                                   : 6 каналовChannel layout                           : L R C LFE Ls RsЧастота                                  : 48,0 КГцЧастота кадров                           : 31,250 кадров/сек (1536 SPF)Битовая глубина                          : 16 битМетод сжатия                             : С потерямиРазмер потока                            : 309 Мбайт (21%)Выравнивание                             : Разделение по промежуткамПродолжительность промежутка             : 40  мс. (1,00 видеокадр)Время предзагрузки промежутка            : 500  мс.ServiceKind/String                       : Complete Main

Чтобы скачать этот контент, Вам необходимо:
1. Скачать и установить торрент-клиент [клик для Windows], (для мобильного найдите на Play Маркет).
2. Кликнуть по [Скачать]


Внимание.
Если проверка ВЫ НЕ РОБОТ - не работает, значит Вы используете устаревший браузер.
Установите актуальный браузер и повторно кликните по [Скачать]
Безопасность: торрент-клиент разрешён АВ Касперского.

[asmlocator.ru].t609395.torrent 
Торрент: Зарегистрирован [ 2019-02-10 21:00 ] · D449D2DEF5C6F720A0856789CD6A90D366DE7E0B

Скачать .torrent

Скачать

15 KB

Статус: проверено
Скачан: 6 раз
Размер: 1,46 GB
terms.php
[Профиль] [ЛС]
Показать сообщения:    
Ответить на тему

Текущее время: 15-Ноя 19:19

Часовой пояс: UTC ± 0



Вы не можете начинать темы
Вы не можете отвечать на сообщения
Вы не можете редактировать свои сообщения
Вы не можете удалять свои сообщения
Вы не можете голосовать в опросах
Вы не можете прикреплять файлы к сообщениям
Вы можете скачивать файлы
Верим фактам, а не вранью Путина! Факт, что Правительство ведёт Россию к истреблению.
Так как численность населения падает, даже не смотря на приток эмигрантов!
Русская нация вымирает и вырождается, смешиваясь с эмигрантами!
Факт, что военных и граждан предприятий заставляют голосовать за партию Единая Россия и Путина
ПОД СТРАХОМ УВОЛЬНЕНИЯ!
Нам не нужно Правительство, блокирующее личную жизнь, интернет, нарушающее сохранность данных.
Все эти действия финансируются за счёт народа!