[VIDEO] Парк Юрского Периода 3 / Jurassic Park III (Джо Джонстон / Joe Johnston) [2001, фантастика, боевик, приключения, BDRip] [MP4, 1280x] Dub Ист-Вест с Blu-ray, 2x MVO, DVO, 4x VO, Original, Sub (rus, eng)

Reply to topic
DL-List and Torrent activity
Size:  2.69 GB   |    Registered:  6 months 15 days   |    Completed:  0 times

Seeder not seen: Never

 
   
 
 
Author Message

star21 ®

Gender: Female

Longevity: 3 years 9 months

Posts: 551989

Location: Екатеринбург

Post 10-Feb-2019 10:15

[Quote]

Парк Юрского Периода 3 / Jurassic Park III Год выпуска: 2001
Страна: США
Жанр: фантастика, боевик, приключения
Продолжительность: 01:32:20
Перевод №1: русский Профессиональный (полное дублирование) Ист-Вест с Blu-ray
Перевод №2: русский Профессиональный (многоголосый, закадровый) Киномания
Перевод №3: украинский Профессиональный (многоголосый, закадровый) 1+1
Перевод №4: украинский Профессиональный (двухголосый, закадровый) Новый канал
Перевод №5: русский Авторский (одноголосый, закадровый) Гланц
Перевод №6: русский Авторский (одноголосый, закадровый) Живов
Перевод №7: русский Авторский (одноголосый, закадровый) Дольский с VHS
Перевод №8: русский Авторский (одноголосый, закадровый) Визгунов с VHS
Оригинальная дорожка: Есть (Английская)
Субтитры: русские (форсированные), (полные), (SDH), английские (SDH)Режиссер: Джо Джонстон / Joe JohnstonВ ролях: Сэм Нил, Уильям Х. Мэйси, Теа Леони, Алессандро Нивола, Тревор Морган, Майкл Джитер, Джон Дил, Брюс А. Янг, Лора Дерн, Тейлор Николс
и другие .
Описание: Герой Сэма Нила, палеонтолог Алан Грант, принимает предложение состоятельного предпринимателя совершить обзорную экскурсию над печально знаменитым островом Сорна на специально нанятом самолете. Мог ли доктор Грант предполагать, что страшная, непредвиденная катастрофа снова заставит его столкнуться со свирепыми плотоядными существами из прошлого?!Более того, с момента ужасных событий картины «Парк Юрского периода» динозавры стали хитрее, сильнее и несоизмеримо опасней. Начинается новая, стремительная и жуткая гонка на выживание, в сравнении с которой все прошлые похождения доктора Гранта — лишь детские игрушки! Качество: BDRip / рип с Blu-ray disc 1080p
Формат: MP4
Видео кодек: H.264
Аудио кодек: AAC
Видео: 1280x692 AR:1.85 3000 kbps 23.976 fps
Аудио №1: [Russian] 2ch 48 kHz 128 kbps - [Dub] Профессиональный (полное дублирование) Ист-Вест с Blu-ray
Аудио №2: [Russian] 2ch 48 kHz 128 kbps - [MVO] Профессиональный (многоголосый, закадровый) Киномания
Аудио №3: [Ukrainian] 2ch 48 kHz 128 kbps - [MVO] Профессиональный (многоголосый, закадровый) 1+1
Аудио №4: [Ukrainian] 2ch 48 kHz 128 kbps - [DVO] Профессиональный (двухголосый, закадровый) Новый канал
Аудио №5: [Russian] 2ch 48 kHz 128 kbps - [VO] Авторский (одноголосый, закадровый) Гланц
Аудио №6: [Russian] 2ch 48 kHz 128 kbps - [VO] Авторский (одноголосый, закадровый) Живов
Аудио №7: [Russian] 2ch 48 kHz 128 kbps - [VO] Авторский (одноголосый, закадровый) Дольский с VHS
Аудио №8: [Russian] 2ch 48 kHz 128 kbps - [VO] Авторский (одноголосый, закадровый) Визгунов с VHS
Аудио №9: [English] 2ch 48 kHz 128 kbps - Original (Английский)

Logx264

avs [info]: 1280x692p 1:1 @ 24000/1001 fps (cfr)
x264 [info]: using SAR=1/1
x264 [info]: using cpu capabilities: MMX2 SSE2Fast SSSE3 SSE4.2 AVX FMA3 BMI2 AVX2
x264 [info]: profile High, level 4.1
x264 [info]: cabac=1 ref=9 deblock=1:-2:-1 analyse=0x3:0x113 me=umh subme=11 psy=1 fade_compensate=0.00 psy_rd=1.00:0.00 mixed_ref=1 me_range=32 chroma_me=1 trellis=2 8x8dct=1 cqm=0 deadzone=21,11 fast_pskip=0 chroma_qp_offset=-2 threads=6 lookahead_threads=1 sliced_threads=0 nr=0 decimate=0 interlaced=0 bluray_compat=0 constrained_intra=0 bframes=8 b_pyramid=2 b_adapt=2 b_bias=0 direct=3 weightb=1 open_gop=0 weightp=2 keyint=250 keyint_min=23 scenecut=40 intra_refresh=0 rc=2pass mbtree=0 bitrate=3000 ratetol=1.0 qcomp=0.70 qpmin=0 qpmax=69 qpstep=4 cplxblur=20.0 qblur=0.5 ip_ratio=1.40 pb_ratio=1.30 aq=3:0.80
x264 [info]: frame I:873 Avg QP:19.22 size: 87024
x264 [info]: frame P:30106 Avg QP:22.74 size: 30826
x264 [info]: frame B:101861 Avg QP:24.30 size: 10525
x264 [info]: consecutive B-frames: 2.6% 4.2% 8.0% 19.6% 18.1% 32.1% 7.7% 4.4% 3.2%
x264 [info]: mb I I16..4: 6.1% 84.3% 9.6%
x264 [info]: mb P I16..4: 0.5% 9.2% 0.9% P16..4: 37.0% 38.2% 8.0% 0.0% 0.0% skip: 6.1%
x264 [info]: mb B I16..4: 0.0% 1.0% 0.1% B16..8: 42.8% 17.0% 1.8% direct: 3.3% skip:33.7% L0:45.5% L1:49.5% BI: 4.9%
x264 [info]: 8x8 transform intra:85.7% inter:66.4%
x264 [info]: direct mvs spatial:98.9% temporal:1.1%
x264 [info]: coded y,uvDC,uvAC intra: 88.3% 65.9% 24.9% inter: 23.6% 13.9% 2.1%
x264 [info]: i16 v,h,dc,p: 26% 15% 4% 55%
x264 [info]: i8 v,h,dc,ddl,ddr,vr,hd,vl,hu: 8% 4% 3% 12% 18% 15% 16% 12% 12%
x264 [info]: i4 v,h,dc,ddl,ddr,vr,hd,vl,hu: 24% 4% 3% 8% 14% 13% 13% 10% 10%
x264 [info]: i8c dc,h,v,p: 31% 30% 19% 19%
x264 [info]: Weighted P-Frames: Y:15.6% UV:10.2%
x264 [info]: ref P L0: 48.6% 11.6% 17.3% 6.5% 5.2% 3.6% 3.2% 1.7% 1.8% 0.3% 0.0%
x264 [info]: ref B L0: 74.2% 11.7% 6.1% 2.9% 2.1% 1.7% 1.0% 0.3%
x264 [info]: ref B L1: 94.2% 5.8%
x264 [info]: kb/s:2997.76encoded 132840 frames, 8.84 fps, 2997.77 kb/s, duration 4:10:24.31

ТХ/MediaInfo

GeneralComplete name                            : J:\Torrents\Jurassic Park III.2001.BDRip.x264.1280x.rip by Frost O.S.mp4Format                                   : MPEG-4Format profile                           : 3GPP Release 6 GeneralCodec ID                                 : 3gg6 (isom/3gg6/mp42)File size                                : 2.69 GiBDuration                                 : 1 h 32 minOverall bit rate mode                    : VariableOverall bit rate                         : 4 167 kb/sEncoded date                             : UTC 2019-02-02 13:52:53Tagged date                              : UTC 2019-02-02 13:52:53Writing application                      : Yamb 2.1.0.0VideoID                                       : 1Format                                   : AVCFormat/Info                              : Advanced Video CodecFormat profile                           : High@L4.1Format settings                          : CABAC / 9 Ref FramesFormat settings, CABAC                   : YesFormat settings, RefFrames               : 9 framesCodec ID                                 : avc1Codec ID/Info                            : Advanced Video CodingDuration                                 : 1 h 32 minBit rate                                 : 3 000 kb/sMaximum bit rate                         : 11.3 Mb/sWidth                                    : 1 280 pixelsHeight                                   : 692 pixelsDisplay aspect ratio                     : 1.85:1Frame rate mode                          : ConstantFrame rate                               : 23.976 (24000/1001) FPSColor space                              : YUVChroma subsampling                       : 4:2:0Bit depth                                : 8 bitsScan type                                : ProgressiveBits/(Pixel*Frame)                       : 0.141Stream size                              : 1.93 GiB (72%)Writing library                          : x264 core 152 r2851kMod ba24899Encoding settings                        : cabac=1 / ref=9 / deblock=1:-2:-1 / analyse=0x3:0x113 / me=umh / subme=11 / psy=1 / fade_compensate=0.00 / psy_rd=1.00:0.00 / mixed_ref=1 / me_range=32 / chroma_me=1 / trellis=2 / 8x8dct=1 / cqm=0 / deadzone=21,11 / fast_pskip=0 / chroma_qp_offset=-2 / threads=6 / lookahead_threads=1 / sliced_threads=0 / nr=0 / decimate=0 / interlaced=0 / bluray_compat=0 / constrained_intra=0 / bframes=8 / b_pyramid=2 / b_adapt=2 / b_bias=0 / direct=3 / weightb=1 / open_gop=0 / weightp=2 / keyint=250 / keyint_min=23 / scenecut=40 / intra_refresh=0 / rc=2pass / mbtree=0 / bitrate=3000 / ratetol=1.0 / qcomp=0.70 / qpmin=0 / qpmax=69 / qpstep=4 / cplxblur=20.0 / qblur=0.5 / ip_ratio=1.40 / pb_ratio=1.30 / aq=3:0.80Encoded date                             : UTC 2019-01-31 14:07:05Tagged date                              : UTC 2019-02-02 13:53:30Color range                              : LimitedColor primaries                          : BT.709Transfer characteristics                 : BT.709Matrix coefficients                      : BT.709Audio #1ID                                       : 2Format                                   : AACFormat/Info                              : Advanced Audio CodecFormat profile                           : LCCodec ID                                 : mp4a-40-2Duration                                 : 1 h 32 minBit rate mode                            : VariableBit rate                                 : 128 kb/sMaximum bit rate                         : 134 kb/sChannel(s)                               : 2 channelsChannel positions                        : Front: L RSampling rate                            : 48.0 kHzFrame rate                               : 46.875 FPS (1024 SPF)Compression mode                         : LossyStream size                              : 84.5 MiB (3%)Title                                    : Russian / Dub, Ist-Vest_(Blu-ray)Encoded date                             : UTC 2019-01-31 19:00:58Tagged date                              : UTC 2019-02-02 13:53:30Audio #2ID                                       : 3Format                                   : AACFormat/Info                              : Advanced Audio CodecFormat profile                           : LCCodec ID                                 : mp4a-40-2Duration                                 : 1 h 32 minBit rate mode                            : VariableBit rate                                 : 128 kb/sMaximum bit rate                         : 134 kb/sChannel(s)                               : 2 channelsChannel positions                        : Front: L RSampling rate                            : 48.0 kHzFrame rate                               : 46.875 FPS (1024 SPF)Compression mode                         : LossyStream size                              : 84.5 MiB (3%)Title                                    : Russian / MVO, KinomaniyaEncoded date                             : UTC 2019-01-31 19:08:46Tagged date                              : UTC 2019-02-02 13:53:30Audio #3ID                                       : 4Format                                   : AACFormat/Info                              : Advanced Audio CodecFormat profile                           : LCCodec ID                                 : mp4a-40-2Duration                                 : 1 h 32 minBit rate mode                            : VariableBit rate                                 : 128 kb/sMaximum bit rate                         : 137 kb/sChannel(s)                               : 2 channelsChannel positions                        : Front: L RSampling rate                            : 48.0 kHzFrame rate                               : 46.875 FPS (1024 SPF)Compression mode                         : LossyStream size                              : 84.4 MiB (3%)Title                                    : Ukrainian / MVO, 1plus1Encoded date                             : UTC 2019-01-31 19:14:01Tagged date                              : UTC 2019-02-02 13:53:30Audio #4ID                                       : 5Format                                   : AACFormat/Info                              : Advanced Audio CodecFormat profile                           : LCCodec ID                                 : mp4a-40-2Duration                                 : 1 h 32 minBit rate mode                            : VariableBit rate                                 : 128 kb/sMaximum bit rate                         : 138 kb/sChannel(s)                               : 2 channelsChannel positions                        : Front: L RSampling rate                            : 48.0 kHzFrame rate                               : 46.875 FPS (1024 SPF)Compression mode                         : LossyStream size                              : 84.5 MiB (3%)Title                                    : Ukrainian / DVO, Novuy_kanalEncoded date                             : UTC 2019-01-31 18:58:04Tagged date                              : UTC 2019-02-02 13:53:30Audio #5ID                                       : 6Format                                   : AACFormat/Info                              : Advanced Audio CodecFormat profile                           : LCCodec ID                                 : mp4a-40-2Duration                                 : 1 h 32 minBit rate mode                            : VariableBit rate                                 : 128 kb/sMaximum bit rate                         : 136 kb/sChannel(s)                               : 2 channelsChannel positions                        : Front: L RSampling rate                            : 48.0 kHzFrame rate                               : 46.875 FPS (1024 SPF)Compression mode                         : LossyStream size                              : 84.5 MiB (3%)Title                                    : Russian / VO, GlanzEncoded date                             : UTC 2019-01-31 19:16:25Tagged date                              : UTC 2019-02-02 13:53:30Audio #6ID                                       : 7Format                                   : AACFormat/Info                              : Advanced Audio CodecFormat profile                           : LCCodec ID                                 : mp4a-40-2Duration                                 : 1 h 32 minBit rate mode                            : VariableBit rate                                 : 128 kb/sMaximum bit rate                         : 138 kb/sChannel(s)                               : 2 channelsChannel positions                        : Front: L RSampling rate                            : 48.0 kHzFrame rate                               : 46.875 FPS (1024 SPF)Compression mode                         : LossyStream size                              : 84.5 MiB (3%)Title                                    : Russian / VO, ZhuvovEncoded date                             : UTC 2019-01-31 19:19:23Tagged date                              : UTC 2019-02-02 13:53:30Audio #7ID                                       : 8Format                                   : AACFormat/Info                              : Advanced Audio CodecFormat profile                           : LCCodec ID                                 : mp4a-40-2Duration                                 : 1 h 32 minBit rate mode                            : VariableBit rate                                 : 128 kb/sMaximum bit rate                         : 135 kb/sChannel(s)                               : 2 channelsChannel positions                        : Front: L RSampling rate                            : 48.0 kHzFrame rate                               : 46.875 FPS (1024 SPF)Compression mode                         : LossyStream size                              : 84.4 MiB (3%)Title                                    : Russian / VO, Dolskiy_s_VHSEncoded date                             : UTC 2019-01-31 19:25:06Tagged date                              : UTC 2019-02-02 13:53:30Audio #8ID                                       : 9Format                                   : AACFormat/Info                              : Advanced Audio CodecFormat profile                           : LCCodec ID                                 : mp4a-40-2Duration                                 : 1 h 32 minBit rate mode                            : VariableBit rate                                 : 128 kb/sMaximum bit rate                         : 135 kb/sChannel(s)                               : 2 channelsChannel positions                        : Front: L RSampling rate                            : 48.0 kHzFrame rate                               : 46.875 FPS (1024 SPF)Compression mode                         : LossyStream size                              : 84.4 MiB (3%)Title                                    : Russian / VO, Vizgunov_s_VHSEncoded date                             : UTC 2019-01-31 19:30:24Tagged date                              : UTC 2019-02-02 13:53:30Audio #9ID                                       : 10Format                                   : AACFormat/Info                              : Advanced Audio CodecFormat profile                           : LCCodec ID                                 : mp4a-40-2Duration                                 : 1 h 32 minBit rate mode                            : VariableBit rate                                 : 128 kb/sMaximum bit rate                         : 137 kb/sChannel(s)                               : 2 channelsChannel positions                        : Front: L RSampling rate                            : 48.0 kHzFrame rate                               : 46.875 FPS (1024 SPF)Compression mode                         : LossyStream size                              : 84.5 MiB (3%)Title                                    : English / OriginalEncoded date                             : UTC 2019-01-31 18:54:37Tagged date                              : UTC 2019-02-02 13:53:30Text #1ID                                       : 11Format                                   : Timed TextCodec ID                                 : tx3gDuration                                 : 42 min 6 sBit rate mode                            : VariableBit rate                                 : 1 b/sStream size                              : 252 Bytes (0%)Title                                    : Russian / ForcedForced                                   : NoEncoded date                             : UTC 2019-02-02 13:53:30Tagged date                              : UTC 2019-02-02 13:53:30Text #2ID                                       : 12Format                                   : Timed TextCodec ID                                 : tx3gDuration                                 : 1 h 23 minBit rate mode                            : VariableBit rate                                 : 69 b/sStream size                              : 42.6 KiB (0%)Title                                    : Russian / FullForced                                   : NoEncoded date                             : UTC 2019-02-02 13:53:30Tagged date                              : UTC 2019-02-02 13:53:30Text #3ID                                       : 13Format                                   : Timed TextCodec ID                                 : tx3gDuration                                 : 1 h 23 minBit rate mode                            : VariableBit rate                                 : 76 b/sStream size                              : 46.8 KiB (0%)Title                                    : Russian / SDHForced                                   : NoEncoded date                             : UTC 2019-02-02 13:53:30Tagged date                              : UTC 2019-02-02 13:53:30Text #4ID                                       : 14Format                                   : Timed TextCodec ID                                 : tx3gDuration                                 : 1 h 23 minBit rate mode                            : VariableBit rate                                 : 48 b/sStream size                              : 29.2 KiB (0%)Title                                    : English / SDHForced                                   : NoEncoded date                             : UTC 2019-02-02 13:53:30Tagged date                              : UTC 2019-02-02 13:53:30

Скриншоты




To download the content you need:
1. Download and install torrent client [for Windows] or for mobile system
2. Click on [Download]
Attention.
If the test YOU are NOT a ROBOT - does not work, then You are using an outdated browser.
Install the current browser and click on [Download]
Security: torrent client is allowed by Kaspersky.

[asmlocator.ru].t609373.torrent 
Torrent: Registered [ 2019-02-10 10:15 ] · C22D38F5B885871536AC0B87AAAE11F40EF57F66

Download .torrent

Download

14 KB

Status: checked
Completed: 0 times
Size: 2.69 GB
terms.php
[Profile] [PM]
Display posts:    
Reply to topic

Current time is: 25-Aug 19:30

All times are UTC ± 0



You cannot post new topics in this forum
You cannot reply to topics in this forum
You cannot edit your posts in this forum
You cannot delete your posts in this forum
You cannot vote in polls in this forum
You cannot attach files in this forum
You can download files in this forum
We believe the facts, not Putin's lies! The fact that the Government is leading Russia to extermination.
Since the population is falling, even despite the influx of emigrants!
The Russian nation is dying and degenerating, mingling with emigrants!
The fact that military and business citizens are forced to vote for the party United Russia and Putin
UNDER FEAR OF FIRING!
We do not need a government that blocks privacy, the Internet, which violates the safety of data.
All these actions are funded by the people!
Half of the people of Russia are below the poverty line!