(Instrumental) String Tribute Players - String Tribute to Red, 2008, FLAC (image+.cue), lossless

Reply to topic
DL-List and Torrent activity
Size:  221 MB   |    Registered:  2 months 15 days   |    Completed:  0 times

Seeder not seen: Never

 
   
 
 
Author Message

star21 ®

Gender: Female

Longevity: 3 years 5 months

Posts: 552372

Location: Екатеринбург

Post 09-Feb-2019 12:11

[Quote]

The String Tribute Players / String Tribute to Red Жанр: Instrumental
Год издания: 2008
Издатель (лейбл): Copycat
Номер по каталогу: CCE 9739
Страна: USA
Аудиокодек: FLAC (image+.cue)
Битрейт аудио: lossless
Продолжительность: 00:39:06
Источник (релизер): CD из личной коллекции
Наличие сканов в содержимом раздачи: нет
Треклист:
01 - Breathe Into Me - 03:47
02 - Let Go - 04:08
03 - Already Over - 04:10
04 - Break Me Down - 03:04
05 - Hide - 03:56
06 - Gave It All Away - 03:10
07 - Lost - 04:44
08 - Wasting Time - 03:59
09 - Already Over, Pt. 2 - 03:54
10 - Pieces - 04:10

Отчёт EAC

Отчёт EAC об извлечении, выполненном 24. сентября 2013, 0:53The String Tribute Players / Red String TributeДисковод: ASUS    BW-12B1ST   Adapter: 3  ID: 0Режим чтения                 : ДостоверностьИспользование точного потока : ДаОтключение кэша аудио        : ДаИспользование указателей C2  : НетКоррекция смещения при чтении                     : 6Способность читать области Lead-in и Lead-out     : НетЗаполнение пропущенных сэмплов тишиной            : ДаУдаление блоков с тишиной в начале и конце        : НетПри вычислениях CRC использовались нулевые сэмплы : ДаИнтерфейс                                         : Встроенный Win32-интерфейс для Win NT/2000Выходной формат : Внутренние WAV-операцииФормат сэмплов  : 44.100 Гц; 16 бит; стереоTOC извлечённого CD     Трек |   Старт  | Длительность | Начальный сектор | Конечный сектор    ---------------------------------------------------------------------       1  |  0:00.00 |    3:47.21   |           0      |      17045       2  |  3:47.21 |    4:08.66   |       17046      |      35711       3  |  7:56.12 |    4:10.66   |       35712      |      54527       4  | 12:07.03 |    3:04.69   |       54528      |      68396       5  | 15:11.72 |    3:56.35   |       68397      |      86131       6  | 19:08.32 |    3:10.09   |       86132      |     100390       7  | 22:18.41 |    4:44.21   |      100391      |     121711       8  | 27:02.62 |    3:59.34   |      121712      |     139670       9  | 31:02.21 |    3:54.04   |      139671      |     157224      10  | 34:56.25 |    4:10.44   |      157225      |     176018Характеристики диапазона извлечения и сообщения об ошибкахВыбранный диапазон     Имя файла D:\EAC\The String Tribute Players - 2008 - Red String Tribute (Copycat - CCE 9739)\The String Tribute Players - 2008 - Red String Tribute.wav     Пиковый уровень 98.8 %     Скорость извлечения 2.9 X     Качество диапазона 99.9 %     CRC теста 01EC677D     CRC копии 01EC677D     Копирование... OKОшибок не произошлоAccurateRip: сводкаТрек  1  отсутствует в базе данныхТрек  2  отсутствует в базе данныхТрек  3  отсутствует в базе данныхТрек  4  отсутствует в базе данныхТрек  5  отсутствует в базе данныхТрек  6  отсутствует в базе данныхТрек  7  отсутствует в базе данныхТрек  8  отсутствует в базе данныхТрек  9  отсутствует в базе данныхТрек 10  отсутствует в базе данныхНи одного трека нет в базе AccurateRipКонец отчёта==== Контрольная сумма отчёта F7A9B858F3EFCC854B0299354A84C0555126099B3C6607A50B5D9F575F760663 ====

To download the content you need:
1. Download and install torrent client [for Windows] or for mobile system
2. Click on [Download]
Attention.
If the test YOU are NOT a ROBOT - does not work, then You are using an outdated browser.
Install the current browser and click on [Download]
Security: torrent client is allowed by Kaspersky.

[asmlocator.ru].t609122.torrent 
Torrent: Registered [ 2019-02-09 12:10 ] · A7DD6297247EAB87B78D3F96BF5152CDB20EB5D0

Download .torrent

Download

18 KB

Status: checked
Completed: 0 times
Size: 221 MB
terms.php
[Profile] [PM]
Display posts:    
Reply to topic

Current time is: 24-Apr 12:52

All times are UTC ± 0



You cannot post new topics in this forum
You cannot reply to topics in this forum
You cannot edit your posts in this forum
You cannot delete your posts in this forum
You cannot vote in polls in this forum
You cannot attach files in this forum
You can download files in this forum