(Post-Hardcore) [CD\\WEB] Outline In Color - Discography - 2010-2019, (8 CD), FLAC (tracks+.cue), lossless

Reply to topic
DL-List and Torrent activity
Size:  1.58 GB   |    Registered:  6 months 8 days   |    Completed:  0 times

Seeder not seen: 22 minutes

 
   
 
 
Author Message

star21 ®

Gender: Female

Longevity: 3 years 9 months

Posts: 551989

Location: Екатеринбург

Post 08-Feb-2019 20:35

[Quote]

Outline In Color - Discography Жанр: Post-Hardcore Носитель: CD, WEB Год издания: 2010-2019 Страна исполнителя (группы): USA Аудиокодек: FLAC (*.flac) Тип рипа: tracks+.cue
Битрейт аудио: lossless Продолжительность: 03:40:35 Источник (релизер): what.cd, deezer.com Наличие сканов в содержимом раздачи: нет

EP & Singles

2010 - Outline In Color (EP)

Продолжительность: 00:48:1001. No Bleeding on the Carpet
02. Every Boy Should Collect Knives
03. One of Two Ways
04. My Other Car is A Time Machine
05. Promises

log

Exact Audio Copy V1.0 beta 3 from 29. August 2011EAC extraction logfile from 7. November 2013, 16:06Outline In Color / Outline In ColorUsed drive  : ATAPI   iHAS124   B   Adapter: 4  ID: 0Read mode               : SecureUtilize accurate stream : YesDefeat audio cache      : YesMake use of C2 pointers : NoRead offset correction                      : 6Overread into Lead-In and Lead-Out          : NoFill up missing offset samples with silence : YesDelete leading and trailing silent blocks   : NoNull samples used in CRC calculations       : YesUsed interface                              : Native Win32 interface for Win NT & 2000Gap handling                                : Appended to previous trackUsed output format              : User Defined EncoderSelected bitrate                : 1024 kBit/sQuality                         : HighAdd ID3 tag                     : NoCommand line compressor         : G:\New Programs\Exact Audio Copy\Flac\flac.exeAdditional command line options : -8 -V -T "ARTIST=%artist%" -T "TITLE=%title%" -T "ALBUM=%albumtitle%" -T "DATE=%year%" -T "TRACKNUMBER=%tracknr%" -T "GENRE=%genre%" -T "PERFORMER=%albuminterpret%" -T "COMPOSER=%composer%" %haslyrics%--tag-from-file=LYRICS="%lyricsfile%"%haslyrics% -T "ALBUMARTIST=%albumartist%" -T "DISCNUMBER=%cdnumber%" -T "TOTALDISCS=%totalcds%" -T "TOTALTRACKS=%numtracks%" -T "COMMENT=%comment%" %source% -o %dest%TOC of the extracted CD     Track |   Start  |  Length  | Start sector | End sector    ---------------------------------------------------------        1  |  0:00.00 |  3:43.71 |         0    |    16795        2  |  3:43.71 |  3:27.46 |     16796    |    32366        3  |  7:11.42 |  3:25.42 |     32367    |    47783        4  | 10:37.09 |  4:12.67 |     47784    |    66750        5  | 14:50.01 |  4:37.74 |     66751    |    87599        6  | 19:28.00 |  4:40.24 |     87600    |   108623Track  1     Filename G:\EACrips\Outline In Color - Outline In Color (2010) [FLAC]\01 No Bleeding on the Carpet.wav     Pre-gap length  0:00:02.00     Peak level 24.6 %     Extraction speed 3.8 X     Track quality 100.0 %     Test CRC E89CF74D     Copy CRC E89CF74D     Track not present in AccurateRip database     Copy OKTrack  2     Filename G:\EACrips\Outline In Color - Outline In Color (2010) [FLAC]\02 Every Boy Should Collect Knives.wav     Peak level 24.6 %     Extraction speed 4.1 X     Track quality 100.0 %     Test CRC E2F7E2F5     Copy CRC E2F7E2F5     Track not present in AccurateRip database     Copy OKTrack  3     Filename G:\EACrips\Outline In Color - Outline In Color (2010) [FLAC]\03 One of Two Ways.wav     Peak level 25.8 %     Extraction speed 4.4 X     Track quality 100.0 %     Test CRC A2497BA7     Copy CRC A2497BA7     Track not present in AccurateRip database     Copy OKTrack  4     Filename G:\EACrips\Outline In Color - Outline In Color (2010) [FLAC]\04 My Other Car is A Time Machine.wav     Peak level 25.9 %     Extraction speed 4.8 X     Track quality 100.0 %     Test CRC 8BE002BE     Copy CRC 8BE002BE     Track not present in AccurateRip database     Copy OKTrack  5     Filename G:\EACrips\Outline In Color - Outline In Color (2010) [FLAC]\05 Promises.wav     Peak level 47.4 %     Extraction speed 5.2 X     Track quality 100.0 %     Test CRC 6E266ED2     Copy CRC 6E266ED2     Track not present in AccurateRip database     Copy OKTrack  6     Filename G:\EACrips\Outline In Color - Outline In Color (2010) [FLAC]\06 Bad Romance.wav     Peak level 33.7 %     Extraction speed 5.5 X     Track quality 100.0 %     Test CRC F20FCB33     Copy CRC F20FCB33     Track not present in AccurateRip database     Copy OKNone of the tracks are present in the AccurateRip databaseNo errors occurredEnd of status report---- CUETools DB Plugin V2.1.3[CTDB TOCID: Br5szMiAINn6gn1KyHYz6Rc2HFU-] disk not present in database, Submit result: Br5szMiAINn6gn1KyHYz6Rc2HFU- has been uploaded==== Log checksum E6C672394FCB352282B7EEEA94888908BB0B773D9DDEB30734CFD681A23A0767 ====

cue

REM GENRE Post-HardcoreREM DATE 2010REM DISCID 4305A806REM COMMENT "ExactAudioCopy v1.0b3"FILE "01 - No Bleeding on the Carpet.wav" WAVE  TRACK 01 AUDIO    TITLE "No Bleeding on the Carpet"    PERFORMER "Outline In Color"    INDEX 01 00:00:00FILE "02 - Every Boy Should Collect Knives.wav" WAVE  TRACK 02 AUDIO    TITLE "Every Boy Should Collect Knives"    PERFORMER "Outline In Color"    INDEX 01 00:00:00FILE "03 - One of Two Ways.wav" WAVE  TRACK 03 AUDIO    TITLE "One of Two Ways"    PERFORMER "Outline In Color"    INDEX 01 00:00:00FILE "04 - My Other Car is A Time Machine.wav" WAVE  TRACK 04 AUDIO    TITLE "My Other Car is A Time Machine"    PERFORMER "Outline In Color"    INDEX 01 00:00:00FILE "05 - Promises.wav" WAVE  TRACK 05 AUDIO    TITLE "Promises"    PERFORMER "Outline In Color"    INDEX 01 00:00:00FILE "06 - Bad Romance.wav" WAVE  TRACK 06 AUDIO    TITLE "Bad Romance"    PERFORMER "Outline In Color"    INDEX 01 00:00:00

2013 - I Am My Own Invention (Tauscher.0) (Single) [WEB]

Продолжительность: 00:04:08
Источник: deezer.com01 I Am My Own Invention (Tauscher.0)

log

Started at: ïÿòíèöà, 08. 02. 2019. - 19:03.321 file found1 -===- G:\[FLAC]\Post-Hardcore\Outline In Color\EP & Singles\2013 - I Am My Own Invention (Tauscher.0) (Single) [WEB]\01 I Am My Own Invention (Tauscher.0).flac  Extracted successfully  Conclusion: this track is CDDA with probability 100%  Tempfile successfully deleted.Finished at: ïÿòíèöà, 08. 02. 2019. - 19:03.47 (operation time: 0:00.14)

2017 - Three Knee Deep (Single) [WEB]

Продолжительность: 00:03:37
Источник: deezer.com01 Three Knee Deep

log

Started at: ïÿòíèöà, 08. 02. 2019. - 19:10.221 file found1 -===- G:\[FLAC]\Post-Hardcore\Outline In Color\EP & Singles\2017 - Three Knee Deep (Single) [WEB]\01 Three Knee Deep.flac  Extracted successfully  Conclusion: this track is CDDA with probability 100%  Tempfile successfully deleted.Finished at: ïÿòíèöà, 08. 02. 2019. - 19:10.33 (operation time: 0:00.11)

2017 - Year 8 (Single) [WEB]

Продолжительность: 00:03:26
Источник: deezer.com01 Year 8

log

Started at: ïÿòíèöà, 08. 02. 2019. - 19:11.381 file found1 -===- G:\[FLAC]\Post-Hardcore\Outline In Color\EP & Singles\2017 - Year 8 (Single) [WEB]\01 Year 8.flac  Extracted successfully  Conclusion: this track is CDDA with probability 100%  Tempfile successfully deleted.Finished at: ïÿòíèöà, 08. 02. 2019. - 19:11.48 (operation time: 0:00.09)

Albums

2012 - Jury of Wolves

Продолжительность: 00:46:4101. The Kindling
02. Follow Me To Sleep
03. A Jury Of Wolves
04. Hope In The Wrong Hands
05. The Chase Scene
06. Charlie Machine
07. Karma Made Me An Arsonist
08. The Good In Me
09. A Fracture, A Fallout
10. I've Had This Dream Before
11. I Ain't Afraid Of No Ghost
12. Tapdance At Knuckle Junction
13. It's Gonna Be Me (N'Sync Cover)
14. The Good In Me (Acoustic)

log

Exact Audio Copy V1.0 beta 3 from 29. August 2011EAC extraction logfile from 25. September 2012, 6:55Outline In Color / Jury of WolvesUsed drive  : MATSHITADVD-RAM UJ8A2AS   Adapter: 0  ID: 1Read mode               : SecureUtilize accurate stream : YesDefeat audio cache      : YesMake use of C2 pointers : NoRead offset correction                      : 102Overread into Lead-In and Lead-Out          : NoFill up missing offset samples with silence : YesDelete leading and trailing silent blocks   : NoNull samples used in CRC calculations       : YesUsed interface                              : Native Win32 interface for Win NT & 2000Gap handling                                : Appended to previous trackUsed output format              : User Defined EncoderSelected bitrate                : 768 kBit/sQuality                         : HighAdd ID3 tag                     : NoCommand line compressor         : C:\Program Files (x86)\Exact Audio Copy\FLAC\FLAC.EXEAdditional command line options : -8 -V -T "ARTIST=%artist%" -T "TITLE=%title%" -T "ALBUM=%albumtitle%" -T "DATE=%year%" -T "TRACKNUMBER=%tracknr%" -T "GENRE=%genre%" -T "PERFORMER=%albuminterpret%" -T "COMPOSER=%composer%" %haslyrics%--tag-from-file=LYRICS="%lyricsfile%"%haslyrics% -T "ALBUMARTIST=%albumartist%" -T "DISCNUMBER=%cdnumber%" -T "TOTALDISCS=%totalcds%" -T "TOTALTRACKS=%numtracks%" -T "COMMENT=%comment%" %source% -o %dest%TOC of the extracted CD     Track |   Start  |  Length  | Start sector | End sector    ---------------------------------------------------------        1  |  0:00.00 |  1:20.07 |         0    |     6006        2  |  1:20.07 |  3:54.31 |      6007    |    23587        3  |  5:14.38 |  3:27.37 |     23588    |    39149        4  |  8:42.00 |  3:32.38 |     39150    |    55087        5  | 12:14.38 |  4:00.37 |     55088    |    73124        6  | 16:15.00 |  3:31.38 |     73125    |    88987        7  | 19:46.38 |  4:27.00 |     88988    |   109012        8  | 24:13.38 |  3:12.37 |    109013    |   123449        9  | 27:26.00 |  3:39.38 |    123450    |   139912       10  | 31:05.38 |  2:26.00 |    139913    |   150862       11  | 33:31.38 |  2:59.37 |    150863    |   164324       12  | 36:31.00 |  3:16.00 |    164325    |   179024       13  | 39:47.00 |  3:40.00 |    179025    |   195524       14  | 43:27.00 |  3:14.38 |    195525    |   210112Track  1     Filename C:\EAC Rips\Outline In Color\Jury of Wolves\01 - The Kindling.wav     Pre-gap length  0:00:02.00     Peak level 99.0 %     Extraction speed 0.8 X     Track quality 100.0 %     Test CRC F8AEC636     Copy CRC F8AEC636     Track not present in AccurateRip database     Copy OKTrack  2     Filename C:\EAC Rips\Outline In Color\Jury of Wolves\02 - Another Nightmare.wav     Peak level 99.0 %     Extraction speed 1.2 X     Track quality 100.0 %     Test CRC DC53465B     Copy CRC DC53465B     Track not present in AccurateRip database     Copy OKTrack  3     Filename C:\EAC Rips\Outline In Color\Jury of Wolves\03 - Jury of Wolves.wav     Peak level 99.0 %     Extraction speed 1.1 X     Track quality 99.9 %     Test CRC 00EC7A69     Copy CRC 00EC7A69     Track not present in AccurateRip database     Copy OKTrack  4     Filename C:\EAC Rips\Outline In Color\Jury of Wolves\04 - Hope In the Wrong Hands.wav     Peak level 99.0 %     Extraction speed 1.4 X     Track quality 100.0 %     Test CRC B2CAF468     Copy CRC B2CAF468     Track not present in AccurateRip database     Copy OKTrack  5     Filename C:\EAC Rips\Outline In Color\Jury of Wolves\05 - The Chase Scene.wav     Peak level 99.0 %     Extraction speed 1.5 X     Track quality 100.0 %     Test CRC 465F751D     Copy CRC 465F751D     Track not present in AccurateRip database     Copy OKTrack  6     Filename C:\EAC Rips\Outline In Color\Jury of Wolves\06 - Charlie Machine.wav     Peak level 99.0 %     Extraction speed 1.3 X     Track quality 99.9 %     Test CRC 02F28941     Copy CRC 02F28941     Track not present in AccurateRip database     Copy OKTrack  7     Filename C:\EAC Rips\Outline In Color\Jury of Wolves\07 - Karma Made Me An Arsonist.wav     Peak level 99.0 %     Extraction speed 1.7 X     Track quality 100.0 %     Test CRC 0080CBD0     Copy CRC 0080CBD0     Track not present in AccurateRip database     Copy OKTrack  8     Filename C:\EAC Rips\Outline In Color\Jury of Wolves\08 - The Good In Me.wav     Peak level 99.0 %     Extraction speed 1.7 X     Track quality 100.0 %     Test CRC 1140EA10     Copy CRC 1140EA10     Track not present in AccurateRip database     Copy OKTrack  9     Filename C:\EAC Rips\Outline In Color\Jury of Wolves\09 - A Fracture, A Fallout.wav     Peak level 99.0 %     Extraction speed 1.8 X     Track quality 100.0 %     Test CRC 6D681D24     Copy CRC 6D681D24     Track not present in AccurateRip database     Copy OKTrack 10     Filename C:\EAC Rips\Outline In Color\Jury of Wolves\10 - I've Had This Dream Before.wav     Peak level 99.0 %     Extraction speed 1.7 X     Track quality 100.0 %     Test CRC BA2334AF     Copy CRC BA2334AF     Track not present in AccurateRip database     Copy OKTrack 11     Filename C:\EAC Rips\Outline In Color\Jury of Wolves\11 - I Ain't Afraid of No Ghost.wav     Peak level 99.0 %     Extraction speed 1.9 X     Track quality 100.0 %     Test CRC DEC88A82     Copy CRC DEC88A82     Track not present in AccurateRip database     Copy OKTrack 12     Filename C:\EAC Rips\Outline In Color\Jury of Wolves\12 - Tapdance At Knuckle Junction.wav     Peak level 97.0 %     Extraction speed 1.9 X     Track quality 100.0 %     Test CRC 80643C48     Copy CRC 80643C48     Track not present in AccurateRip database     Copy OKTrack 13     Filename C:\EAC Rips\Outline In Color\Jury of Wolves\13 - It's Gonna Be Me (N'Sync Cover).wav     Peak level 97.0 %     Extraction speed 1.7 X     Track quality 100.0 %     Test CRC AF8511DB     Copy CRC AF8511DB     Track not present in AccurateRip database     Copy OKTrack 14     Filename C:\EAC Rips\Outline In Color\Jury of Wolves\14 - The Good In Me (Acoustic).wav     Peak level 97.0 %     Extraction speed 2.1 X     Track quality 100.0 %     Test CRC 00DAA289     Copy CRC 00DAA289     Track not present in AccurateRip database     Copy OKNone of the tracks are present in the AccurateRip databaseNo errors occurredEnd of status report==== Log checksum 0298C3A774B73871708833958221899733F2F4441DF50F5872EE2DC848A08642 ====

cue

REM GENRE MetalcoreREM DATE 2012REM DISCID CE0AF10EREM COMMENT "ExactAudioCopy v1.0b3"PERFORMER "Outline In Color"TITLE "Jury of Wolves"FILE "01 - The Kindling.wav" WAVE  TRACK 01 AUDIO    TITLE "The Kindling"    PERFORMER "Outline In Color"    FLAGS DCP    INDEX 01 00:00:00FILE "02 - Another Nightmare.wav" WAVE  TRACK 02 AUDIO    TITLE "Another Nightmare"    PERFORMER "Outline In Color"    FLAGS DCP    INDEX 01 00:00:00FILE "03 - Jury of Wolves.wav" WAVE  TRACK 03 AUDIO    TITLE "Jury of Wolves"    PERFORMER "Outline In Color"    FLAGS DCP    INDEX 01 00:00:00FILE "04 - Hope In the Wrong Hands.wav" WAVE  TRACK 04 AUDIO    TITLE "Hope In the Wrong Hands"    PERFORMER "Outline In Color"    FLAGS DCP    INDEX 01 00:00:00FILE "05 - The Chase Scene.wav" WAVE  TRACK 05 AUDIO    TITLE "The Chase Scene"    PERFORMER "Outline In Color"    FLAGS DCP    INDEX 01 00:00:00FILE "06 - Charlie Machine.wav" WAVE  TRACK 06 AUDIO    TITLE "Charlie Machine"    PERFORMER "Outline In Color"    FLAGS DCP    INDEX 01 00:00:00FILE "07 - Karma Made Me An Arsonist.wav" WAVE  TRACK 07 AUDIO    TITLE "Karma Made Me An Arsonist"    PERFORMER "Outline In Color"    FLAGS DCP    INDEX 01 00:00:00FILE "08 - The Good In Me.wav" WAVE  TRACK 08 AUDIO    TITLE "The Good In Me"    PERFORMER "Outline In Color"    FLAGS DCP    INDEX 01 00:00:00FILE "09 - A Fracture, A Fallout.wav" WAVE  TRACK 09 AUDIO    TITLE "A Fracture, A Fallout"    PERFORMER "Outline In Color"    FLAGS DCP    INDEX 01 00:00:00FILE "10 - I've Had This Dream Before.wav" WAVE  TRACK 10 AUDIO    TITLE "I've Had This Dream Before"    PERFORMER "Outline In Color"    FLAGS DCP    INDEX 01 00:00:00FILE "11 - I Ain't Afraid of No Ghost.wav" WAVE  TRACK 11 AUDIO    TITLE "I Ain't Afraid of No Ghost"    PERFORMER "Outline In Color"    FLAGS DCP    INDEX 01 00:00:00FILE "12 - Tapdance At Knuckle Junction.wav" WAVE  TRACK 12 AUDIO    TITLE "Tapdance At Knuckle Junction"    PERFORMER "Outline In Color"    FLAGS DCP    INDEX 01 00:00:00FILE "13 - It's Gonna Be Me (N'Sync Cover).wav" WAVE  TRACK 13 AUDIO    TITLE "It's Gonna Be Me (N'Sync Cover)"    PERFORMER "Outline In Color"    FLAGS DCP    INDEX 01 00:00:00FILE "14 - The Good In Me (Acoustic).wav" WAVE  TRACK 14 AUDIO    TITLE "The Good In Me (Acoustic)"    PERFORMER "Outline In Color"    FLAGS DCP    INDEX 01 00:00:00

2014 - Masks

Продолжительность: 00:46:4101. Between The Devil And The Deep Blue Sea (Live To Tell)
02. Animal Masks
03. Beautiful Secrets
04. Lifer
05. Water In The Desert
06. Con Artist Culture Vs. Pax Americana
07. Happy Hunting (A Title She Deserves)
08. Pick Your Poison
09. The Souvenir Scheme
10. Whispers
11. The Golden Rule
12. 55

log

X Lossless Decoder version 20140504 (147.0)XLD extraction logfile from 2014-06-26 10:43:25 -0400Outline In Color / MasksUsed drive : HL-DT-ST DVDRW  GS23N (revision SB03)Media type : Pressed CDRipper mode             : XLD Secure RipperDisable audio cache     : OK for the drive with a cache less than 1375KiBMake use of C2 pointers : NORead offset correction  : 667Max retry count         : 100Gap status              : Analyzed, Appended (except HTOA)TOC of the extracted CD     Track |   Start  |  Length  | Start sector | End sector    ---------------------------------------------------------        1  | 00:00:00 | 03:36:19 |         0    |    16218        2  | 03:36:19 | 04:14:18 |     16219    |    35286        3  | 07:50:37 | 04:02:16 |     35287    |    53452        4  | 11:52:53 | 03:26:17 |     53453    |    68919        5  | 15:18:70 | 03:40:17 |     68920    |    85436        6  | 18:59:12 | 03:53:18 |     85437    |   102929        7  | 22:52:30 | 03:08:15 |    102930    |   117044        8  | 26:00:45 | 03:35:15 |    117045    |   133184        9  | 29:35:60 | 03:53:18 |    133185    |   150677       10  | 33:29:03 | 04:27:19 |    150678    |   170721       11  | 37:56:22 | 03:57:19 |    170722    |   188515       12  | 41:53:41 | 03:12:56 |    188516    |   202971AccurateRip Summary    Disc not found in AccurateRip DB.All Tracks    Album gain               : -10.45 dB    Peak                     : 1.000000    Statistics        Read error                           : 0        Jitter error (maybe fixed)           : 0        Retry sector count                   : 0        Damaged sector count                 : 0Track 01    Filename : /Users/Josh/Desktop/Outline In Color - Masks (2014) [FLAC]/01 Between the Devil and the Deep Blue Sea.flac    Pre-gap length : 00:02:00    Track gain               : -10.83 dB    Peak                     : 1.000000    CRC32 hash (test run)    : 03E778F4    CRC32 hash               : 03E778F4    CRC32 hash (skip zero)   : B3EBD07F    AccurateRip v1 signature : DFE653CB    AccurateRip v2 signature : F1CFAD94        ->Track not present in AccurateRip database.    Statistics        Read error                           : 0        Jitter error (maybe fixed)           : 0        Retry sector count                   : 0        Damaged sector count                 : 0Track 02    Filename : /Users/Josh/Desktop/Outline In Color - Masks (2014) [FLAC]/02 Animal Masks.flac    Pre-gap length : 00:01:74    Track gain               : -10.52 dB    Peak                     : 1.000000    CRC32 hash (test run)    : B5966E2F    CRC32 hash               : B5966E2F    CRC32 hash (skip zero)   : 5CCC6E01    AccurateRip v1 signature : E98E44F7    AccurateRip v2 signature : DFFC6E1E        ->Track not present in AccurateRip database.    Statistics        Read error                           : 0        Jitter error (maybe fixed)           : 0        Retry sector count                   : 0        Damaged sector count                 : 0Track 03    Filename : /Users/Josh/Desktop/Outline In Color - Masks (2014) [FLAC]/03 Beautiful Secrets.flac    Pre-gap length : 00:01:74    Track gain               : -10.37 dB    Peak                     : 1.000000    CRC32 hash (test run)    : C707A57B    CRC32 hash               : C707A57B    CRC32 hash (skip zero)   : 9940C666    AccurateRip v1 signature : 39C7CD2C    AccurateRip v2 signature : 59AF8268        ->Track not present in AccurateRip database.    Statistics        Read error                           : 0        Jitter error (maybe fixed)           : 0        Retry sector count                   : 0        Damaged sector count                 : 0Track 04    Filename : /Users/Josh/Desktop/Outline In Color - Masks (2014) [FLAC]/04 Lifer.flac    Pre-gap length : 00:01:74    Track gain               : -10.77 dB    Peak                     : 1.000000    CRC32 hash (test run)    : 8717B223    CRC32 hash               : 8717B223    CRC32 hash (skip zero)   : 85059E56    AccurateRip v1 signature : CE9585DF    AccurateRip v2 signature : 5137D45D        ->Track not present in AccurateRip database.    Statistics        Read error                           : 0        Jitter error (maybe fixed)           : 0        Retry sector count                   : 0        Damaged sector count                 : 0Track 05    Filename : /Users/Josh/Desktop/Outline In Color - Masks (2014) [FLAC]/05 Water in the Dessert.flac    Pre-gap length : 00:01:74    Track gain               : -11.08 dB    Peak                     : 1.000000    CRC32 hash (test run)    : D9AA3FED    CRC32 hash               : D9AA3FED    CRC32 hash (skip zero)   : 3A22B1CA    AccurateRip v1 signature : B7442D1F    AccurateRip v2 signature : 83F45FAB        ->Track not present in AccurateRip database.    Statistics        Read error                           : 0        Jitter error (maybe fixed)           : 0        Retry sector count                   : 0        Damaged sector count                 : 0Track 06    Filename : /Users/Josh/Desktop/Outline In Color - Masks (2014) [FLAC]/06 Con Artist Culture vs. Pax Americana.flac    Pre-gap length : 00:01:74    Track gain               : -10.35 dB    Peak                     : 1.000000    CRC32 hash (test run)    : 13ED7C6B    CRC32 hash               : 13ED7C6B    CRC32 hash (skip zero)   : 53BE0EE6    AccurateRip v1 signature : 9F6A0E6A    AccurateRip v2 signature : FB34A298        ->Track not present in AccurateRip database.    Statistics        Read error                           : 0        Jitter error (maybe fixed)           : 0        Retry sector count                   : 0        Damaged sector count                 : 0Track 07    Filename : /Users/Josh/Desktop/Outline In Color - Masks (2014) [FLAC]/07 Happy Hunting (A Title She Deserves).flac    Pre-gap length : 00:01:74    Track gain               : -10.23 dB    Peak                     : 1.000000    CRC32 hash (test run)    : 95DCAE22    CRC32 hash               : 95DCAE22    CRC32 hash (skip zero)   : B97BA43F    AccurateRip v1 signature : D0BD1D5B    AccurateRip v2 signature : AC6AE70E        ->Track not present in AccurateRip database.    Statistics        Read error                           : 0        Jitter error (maybe fixed)           : 0        Retry sector count                   : 0        Damaged sector count                 : 0Track 08    Filename : /Users/Josh/Desktop/Outline In Color - Masks (2014) [FLAC]/08 Pick Your Poison.flac    Pre-gap length : 00:01:74    Track gain               : -10.06 dB    Peak                     : 1.000000    CRC32 hash (test run)    : EED5C047    CRC32 hash               : EED5C047    CRC32 hash (skip zero)   : 6B912C4B    AccurateRip v1 signature : 4896751C    AccurateRip v2 signature : 3FE487E4        ->Track not present in AccurateRip database.    Statistics        Read error                           : 0        Jitter error (maybe fixed)           : 0        Retry sector count                   : 0        Damaged sector count                 : 0Track 09    Filename : /Users/Josh/Desktop/Outline In Color - Masks (2014) [FLAC]/09 The Souvenir Scheme.flac    Pre-gap length : 00:01:74    Track gain               : -10.39 dB    Peak                     : 1.000000    CRC32 hash (test run)    : 8916A0D7    CRC32 hash               : 8916A0D7    CRC32 hash (skip zero)   : 4DEBF211    AccurateRip v1 signature : 48817675    AccurateRip v2 signature : 24E9E678        ->Track not present in AccurateRip database.    Statistics        Read error                           : 0        Jitter error (maybe fixed)           : 0        Retry sector count                   : 0        Damaged sector count                 : 0Track 10    Filename : /Users/Josh/Desktop/Outline In Color - Masks (2014) [FLAC]/10 Whispers.flac    Pre-gap length : 00:01:74    Track gain               : -5.22 dB    Peak                     : 0.988007    CRC32 hash (test run)    : CDE124CD    CRC32 hash               : CDE124CD    CRC32 hash (skip zero)   : 47D1A95B    AccurateRip v1 signature : 2DDECFB0    AccurateRip v2 signature : 091A0545        ->Track not present in AccurateRip database.    Statistics        Read error                           : 0        Jitter error (maybe fixed)           : 0        Retry sector count                   : 0        Damaged sector count                 : 0Track 11    Filename : /Users/Josh/Desktop/Outline In Color - Masks (2014) [FLAC]/11 The Golden Rule.flac    Pre-gap length : 00:01:74    Track gain               : -10.18 dB    Peak                     : 1.000000    CRC32 hash (test run)    : 8DD3EA14    CRC32 hash               : 8DD3EA14    CRC32 hash (skip zero)   : 7AC9DA30    AccurateRip v1 signature : 3363BCE4    AccurateRip v2 signature : C2254072        ->Track not present in AccurateRip database.    Statistics        Read error                           : 0        Jitter error (maybe fixed)           : 0        Retry sector count                   : 0        Damaged sector count                 : 0Track 12    Filename : /Users/Josh/Desktop/Outline In Color - Masks (2014) [FLAC]/12 55.flac    Pre-gap length : 00:01:74    Track gain               : -9.69 dB    Peak                     : 1.000000    CRC32 hash (test run)    : 45E3F2DD    CRC32 hash               : 45E3F2DD    CRC32 hash (skip zero)   : 9F1BFD25    AccurateRip v1 signature : 0E52F308    AccurateRip v2 signature : 32AC1B6A        ->Track not present in AccurateRip database.    Statistics        Read error                           : 0        Jitter error (maybe fixed)           : 0        Retry sector count                   : 0        Damaged sector count                 : 0No errors occurredEnd of status report-----BEGIN XLD SIGNATURE-----d_kB.M9K.XknDVEV_5d.fcllCTHc3B4UqirpTn6dkbRgBG6vybALuzwpDzkufeDTwWyUtXEeI4QVJmhEws6ax89YKUda5Aq9OHEvpFC-----END XLD SIGNATURE-----

cue

TITLE "Masks"PERFORMER "Outline In Color"REM GENRE "Post Hardcore"REM DATE "2014"REM DISCNUMBER 1REM TOTALDISCS 1REM DISCID 8F0A920CREM REPLAYGAIN_ALBUM_GAIN -10.45 dBREM REPLAYGAIN_ALBUM_PEAK 1.000000FILE "01 - Between the Devil and the Deep Blue Sea.flac" WAVE  TRACK 01 AUDIO    TITLE "Between the Devil and the Deep Blue Sea"    PERFORMER "Outline In Color"    ISRC USQZ31407701    REM REPLAYGAIN_TRACK_GAIN -10.83 dB    REM REPLAYGAIN_TRACK_PEAK 1.000000    INDEX 01 00:00:00  TRACK 02 AUDIO    TITLE "Animal Masks"    PERFORMER "Outline In Color"    ISRC USQZ31407702    REM REPLAYGAIN_TRACK_GAIN -10.52 dB    REM REPLAYGAIN_TRACK_PEAK 1.000000    INDEX 00 03:34:20FILE "02 - Animal Masks.flac" WAVE    INDEX 01 00:00:00  TRACK 03 AUDIO    TITLE "Beautiful Secrets"    PERFORMER "Outline In Color"    ISRC USQZ31407703    REM REPLAYGAIN_TRACK_GAIN -10.37 dB    REM REPLAYGAIN_TRACK_PEAK 1.000000    INDEX 00 04:12:19FILE "03 - Beautiful Secrets.flac" WAVE    INDEX 01 00:00:00  TRACK 04 AUDIO    TITLE "Lifer"    PERFORMER "Outline In Color"    ISRC USQZ31407704    REM REPLAYGAIN_TRACK_GAIN -10.77 dB    REM REPLAYGAIN_TRACK_PEAK 1.000000    INDEX 00 04:00:17FILE "04 - Lifer.flac" WAVE    INDEX 01 00:00:00  TRACK 05 AUDIO    TITLE "Water in the Dessert"    PERFORMER "Outline In Color"    ISRC USQZ31407705    REM REPLAYGAIN_TRACK_GAIN -11.08 dB    REM REPLAYGAIN_TRACK_PEAK 1.000000    INDEX 00 03:24:18FILE "05 - Water in the Dessert.flac" WAVE    INDEX 01 00:00:00  TRACK 06 AUDIO    TITLE "Con Artist Culture vs. Pax Americana"    PERFORMER "Outline In Color"    ISRC USQZ31407706    REM REPLAYGAIN_TRACK_GAIN -10.35 dB    REM REPLAYGAIN_TRACK_PEAK 1.000000    INDEX 00 03:38:18FILE "06 - Con Artist Culture vs. Pax Americana.flac" WAVE    INDEX 01 00:00:00  TRACK 07 AUDIO    TITLE "Happy Hunting (A Title She Deserves)"    PERFORMER "Outline In Color"    ISRC USQZ31407707    REM REPLAYGAIN_TRACK_GAIN -10.23 dB    REM REPLAYGAIN_TRACK_PEAK 1.000000    INDEX 00 03:51:19FILE "07 - Happy Hunting (A Title She Deserves).flac" WAVE    INDEX 01 00:00:00  TRACK 08 AUDIO    TITLE "Pick Your Poison"    PERFORMER "Outline In Color"    ISRC USQZ31407708    REM REPLAYGAIN_TRACK_GAIN -10.06 dB    REM REPLAYGAIN_TRACK_PEAK 1.000000    INDEX 00 03:06:16FILE "08 - Pick Your Poison.flac" WAVE    INDEX 01 00:00:00  TRACK 09 AUDIO    TITLE "The Souvenir Scheme"    PERFORMER "Outline In Color"    ISRC USQZ31407709    REM REPLAYGAIN_TRACK_GAIN -10.39 dB    REM REPLAYGAIN_TRACK_PEAK 1.000000    INDEX 00 03:33:16FILE "09 - The Souvenir Scheme.flac" WAVE    INDEX 01 00:00:00  TRACK 10 AUDIO    TITLE "Whispers"    PERFORMER "Outline In Color"    ISRC USQZ31407710    REM REPLAYGAIN_TRACK_GAIN -5.22 dB    REM REPLAYGAIN_TRACK_PEAK 0.988007    INDEX 00 03:51:19FILE "10 - Whispers.flac" WAVE    INDEX 01 00:00:00  TRACK 11 AUDIO    TITLE "The Golden Rule"    PERFORMER "Outline In Color"    ISRC USQZ31407711    REM REPLAYGAIN_TRACK_GAIN -10.18 dB    REM REPLAYGAIN_TRACK_PEAK 1.000000    INDEX 00 04:25:20FILE "11 - The Golden Rule.flac" WAVE    INDEX 01 00:00:00  TRACK 12 AUDIO    TITLE "55"    PERFORMER "Outline In Color"    ISRC USQZ31407712    REM REPLAYGAIN_TRACK_GAIN -9.69 dB    REM REPLAYGAIN_TRACK_PEAK 1.000000    INDEX 00 03:55:20FILE "12 - 55.flac" WAVE    INDEX 01 00:00:00

2016 - Struggle [WEB]

Продолжительность: 00:53:52
Источник: deezer.com01. Paradise Is Burning
02. Dead Gardens
03. Eat Your Heart Out
04. Alive
05. The Way The World Turns
06. Silencers
07. Happy Endings
08. The Monster In The Mirror
09. My Other Car Is A Time Machine II
10. The Calm
11. The Storm
12. Somehing We Can Dance To
13. From The Bottom Of My Black Heart
14. I Will Struggle

лог проверки качества

Started at: ïÿòíèöà, 08. 02. 2019. - 18:55.5114 files found01 -===- G:\[FLAC]\Post-Hardcore\Outline In Color\Albums\2016 - Struggle [WEB]\01 Paradise Is Burning.flac  Extracted successfully  Conclusion: this track is CDDA with probability 100%  Tempfile successfully deleted.02 -===- G:\[FLAC]\Post-Hardcore\Outline In Color\Albums\2016 - Struggle [WEB]\02 Dead Gardens.flac  Extracted successfully  Conclusion: this track is CDDA with probability 100%  Tempfile successfully deleted.03 -===- G:\[FLAC]\Post-Hardcore\Outline In Color\Albums\2016 - Struggle [WEB]\03 Eat Your Heart Out.flac  Extracted successfully  Conclusion: this track is CDDA with probability 100%  Tempfile successfully deleted.04 -===- G:\[FLAC]\Post-Hardcore\Outline In Color\Albums\2016 - Struggle [WEB]\04 Alive.flac  Extracted successfully  Conclusion: this track is CDDA with probability 100%  Tempfile successfully deleted.05 -===- G:\[FLAC]\Post-Hardcore\Outline In Color\Albums\2016 - Struggle [WEB]\05 Way the World Turns.flac  Extracted successfully  Conclusion: this track is CDDA with probability 100%  Tempfile successfully deleted.06 -===- G:\[FLAC]\Post-Hardcore\Outline In Color\Albums\2016 - Struggle [WEB]\06 Silencers.flac  Extracted successfully  Conclusion: this track is CDDA with probability 100%  Tempfile successfully deleted.07 -===- G:\[FLAC]\Post-Hardcore\Outline In Color\Albums\2016 - Struggle [WEB]\07 Happy Endings.flac  Extracted successfully  Conclusion: this track is CDDA with probability 100%  Tempfile successfully deleted.08 -===- G:\[FLAC]\Post-Hardcore\Outline In Color\Albums\2016 - Struggle [WEB]\08 Monster in the Mirror.flac  Extracted successfully  Conclusion: this track is CDDA with probability 100%  Tempfile successfully deleted.09 -===- G:\[FLAC]\Post-Hardcore\Outline In Color\Albums\2016 - Struggle [WEB]\09 My Other Car Is a Time Machine.flac  Extracted successfully  Conclusion: this track is CDDA with probability 100%  Tempfile successfully deleted.10 -===- G:\[FLAC]\Post-Hardcore\Outline In Color\Albums\2016 - Struggle [WEB]\10 The Calm.flac  Extracted successfully  Conclusion: this track is CDDA with probability 100%  Tempfile successfully deleted.11 -===- G:\[FLAC]\Post-Hardcore\Outline In Color\Albums\2016 - Struggle [WEB]\11 The Storm.flac  Extracted successfully  Conclusion: this track is CDDA with probability 100%  Tempfile successfully deleted.12 -===- G:\[FLAC]\Post-Hardcore\Outline In Color\Albums\2016 - Struggle [WEB]\12 Something We Can Dance To.flac  Extracted successfully  Conclusion: this track is CDDA with probability 100%  Tempfile successfully deleted.13 -===- G:\[FLAC]\Post-Hardcore\Outline In Color\Albums\2016 - Struggle [WEB]\13 From the Bottom of My Black Hear.flac  Extracted successfully  Conclusion: this track is CDDA with probability 100%  Tempfile successfully deleted.14 -===- G:\[FLAC]\Post-Hardcore\Outline In Color\Albums\2016 - Struggle [WEB]\14 I Will Struggle.flac  Extracted successfully  Conclusion: this track is CDDA with probability 100%  Tempfile successfully deleted.Finished at: ïÿòíèöà, 08. 02. 2019. - 18:58.23 (operation time: 0:02.32)

2019 - Outline in Color [WEB]

Продолжительность: 00:39:34
Источник: deezer.com01. Not Enough
02. Killing Season
03. Vulture
04. Broken Record
05. Dust
06. Absence of Control
07. Smother Me
08. A Living Nightmare
09. Barely Human
10. Spark
11.The Stakes (feat. Kyle Lucas)
12.Dissolve

log

Started at: ïÿòíèöà, 08. 02. 2019. - 18:58.4912 files found01 -===- G:\[FLAC]\Post-Hardcore\Outline In Color\Albums\2019 - Outline in Color [WEB]\01 Not Enough.flac  Extracted successfully  Conclusion: this track is CDDA with probability 100%  Tempfile successfully deleted.02 -===- G:\[FLAC]\Post-Hardcore\Outline In Color\Albums\2019 - Outline in Color [WEB]\02 Killing Season.flac  Extracted successfully  Conclusion: this track is CDDA with probability 100%  Tempfile successfully deleted.03 -===- G:\[FLAC]\Post-Hardcore\Outline In Color\Albums\2019 - Outline in Color [WEB]\03 Vulture.flac  Extracted successfully  Conclusion: this track is CDDA with probability 100%  Tempfile successfully deleted.04 -===- G:\[FLAC]\Post-Hardcore\Outline In Color\Albums\2019 - Outline in Color [WEB]\04 Broken Record.flac  Extracted successfully  Conclusion: this track is CDDA with probability 100%  Tempfile successfully deleted.05 -===- G:\[FLAC]\Post-Hardcore\Outline In Color\Albums\2019 - Outline in Color [WEB]\05 Dust.flac  Extracted successfully  Conclusion: this track is CDDA with probability 100%  Tempfile successfully deleted.06 -===- G:\[FLAC]\Post-Hardcore\Outline In Color\Albums\2019 - Outline in Color [WEB]\06 Absence of Control.flac  Extracted successfully  Conclusion: this track is CDDA with probability 100%  Tempfile successfully deleted.07 -===- G:\[FLAC]\Post-Hardcore\Outline In Color\Albums\2019 - Outline in Color [WEB]\07 Smother Me.flac  Extracted successfully  Conclusion: this track is CDDA with probability 100%  Tempfile successfully deleted.08 -===- G:\[FLAC]\Post-Hardcore\Outline In Color\Albums\2019 - Outline in Color [WEB]\08 A Living Nightmare.flac  Extracted successfully  Conclusion: this track is CDDA with probability 100%  Tempfile successfully deleted.09 -===- G:\[FLAC]\Post-Hardcore\Outline In Color\Albums\2019 - Outline in Color [WEB]\09 Barely Human.flac  Extracted successfully  Conclusion: this track is CDDA with probability 100%  Tempfile successfully deleted.10 -===- G:\[FLAC]\Post-Hardcore\Outline In Color\Albums\2019 - Outline in Color [WEB]\10 Spark.flac  Extracted successfully  Conclusion: this track is CDDA with probability 100%  Tempfile successfully deleted.11 -===- G:\[FLAC]\Post-Hardcore\Outline In Color\Albums\2019 - Outline in Color [WEB]\11 The Stakes (feat. Kyle Lucas).flac  Extracted successfully  Conclusion: this track is CDDA with probability 100%  Tempfile successfully deleted.12 -===- G:\[FLAC]\Post-Hardcore\Outline In Color\Albums\2019 - Outline in Color [WEB]\12 Dissolve.flac  Extracted successfully  Conclusion: this track is CDDA with probability 100%  Tempfile successfully deleted.Finished at: ïÿòíèöà, 08. 02. 2019. - 19:00.27 (operation time: 0:01.38)

To download the content you need:
1. Download and install torrent client [for Windows] or for mobile system
2. Click on [Download]
Attention.
If the test YOU are NOT a ROBOT - does not work, then You are using an outdated browser.
Install the current browser and click on [Download]
Security: torrent client is allowed by Kaspersky.

[asmlocator.ru].t608713.torrent 
Torrent: Registered [ 2019-02-08 20:35 ] · 401715E3A229BA91319F8458ADCE1C9824D84330

Download .torrent

Download

23 KB

Status: checked
Completed: 0 times
Size: 1.58 GB
terms.php
[Profile] [PM]
Display posts:    
Reply to topic

Current time is: 17-Aug 11:52

All times are UTC ± 0



You cannot post new topics in this forum
You cannot reply to topics in this forum
You cannot edit your posts in this forum
You cannot delete your posts in this forum
You cannot vote in polls in this forum
You cannot attach files in this forum
You can download files in this forum