(Pop, Folk [Колядки]) [CD] Андрій Заліско - Різдвяний (Колядує Заліско і друзі) - 2007, FLAC (image+.cue), lossless [Андрий Залиско]

Ответить на тему
Статистика раздачи
Размер:  335 MB   |    Зарегистрирован:  9 месяцев 7 дней   |    Скачан:  0 раз

Полного источника не было: Никогда

 
   
 
 
Автор Сообщение

star21 ®

Пол: Женский

Стаж: 4 года

Сообщений: 551946

Откуда: Екатеринбург

Создавать темы 08-Фев-2019 14:20

[Цитировать]

Андрій Заліско / Різдвяний (Колядує Заліско і друзі) Жанр: Pop, Folk (Колядки)
Носитель: CD
Страна-производитель диска (релиза): Украина
Год издания: 2007
Издатель (лейбл): Заліско
Номер по каталогу: ---
Страна исполнителя (группы): Украина
Аудиокодек: FLAC (*.flac)
Тип рипа: image+.cue
Битрейт аудио: lossless
Продолжительность: 00:49:12
Источник: toloka
Наличие сканов в содержимом раздачи: даhttp://www.zalisko.com.ua01. Вступ [0:58]
02. По всьому світу (з Андріаною) [3:48]
03. Слава Вовишніх Богу [4:40]
04. Нова радість стала (a capella з 'Львівськими музиками') [3:54]
05. На небі зірка ясна засіяла [2:39]
06. Бог ся рождає (колядує Наталка Карпа) [2:25]
07. Зійшла зірка чудна [3:17]
08. Бог Предвічний [4:12]
09. Щедрий вечір - добрий вечір (колядує Олена Корнєєва) [3:14]
10. Старий рік минає (інструментал) [0:39]
11. Возвеселімся всі разом нині [3:19]
12. Темная ніченька [3:11]
13. Нова радість стала (колядує Ліля Ваврін) [2:37]
14. Ой, чи є, чи нема [3:13]
15. Божий син днесь народився [2:30]
16. Закінчення [0:37]
17. Різдвяно-Новорічна (з Наталкою Карпою, Ната-Лі, гуртом 'Яка ІснуЄ', Maximus) [4:01]

Лог создания рипа

Exact Audio Copy V0.99 prebeta 4 from 23. January 2008EAC extraction logfile from 4. December 2008, 10:28Andriy Zalisko / RizdvianyiUsed drive  : SONY    DVD-ROM DDU1615   Adapter: 1  ID: 0Read mode               : SecureUtilize accurate stream : YesDefeat audio cache      : YesMake use of C2 pointers : YesCombined read/write offset correction       : 0Overread into Lead-In and Lead-Out          : NoFill up missing offset samples with silence : YesDelete leading and trailing silent blocks   : NoNull samples used in CRC calculations       : NoUsed interface                              : Native Win32 interface for Win NT & 2000Used output format : Internal WAV RoutinesSample format      : 44.100 Hz; 16 Bit; StereoTOC of the extracted CD     Track |   Start  |  Length  | Start sector | End sector    ---------------------------------------------------------        1  |  0:00.00 |  0:57.41 |         0    |     4315        2  |  0:57.41 |  3:47.42 |      4316    |    21382        3  |  4:45.08 |  4:40.08 |     21383    |    42390        4  |  9:25.16 |  3:53.39 |     42391    |    59904        5  | 13:18.55 |  2:39.13 |     59905    |    71842        6  | 15:57.68 |  2:25.03 |     71843    |    82720        7  | 18:22.71 |  3:16.74 |     82721    |    97494        8  | 21:39.70 |  4:12.04 |     97495    |   116398        9  | 25:51.74 |  3:13.43 |    116399    |   130916       10  | 29:05.42 |  0:39.37 |    130917    |   133878       11  | 29:45.04 |  3:18.60 |    133879    |   148788       12  | 33:03.64 |  3:11.17 |    148789    |   163130       13  | 36:15.06 |  2:36.42 |    163131    |   174872       14  | 38:51.48 |  3:12.41 |    174873    |   189313       15  | 42:04.14 |  2:29.56 |    189314    |   200544       16  | 44:33.70 |  0:36.71 |    200545    |   203315       17  | 45:10.66 |  4:00.59 |    203316    |   221374Range status and errorsSelected range     Filename C:\Temp CD\Andriy Zalisko\Rizdvianyi\Andriy Zalisko - Rizdvianyi.wav     Peak level 100.0 %     Range quality 100.0 %     Copy CRC F6149539     Copy OKNo errors occurredEnd of status report

Содержание индексной карты (.CUE)

REM GENRE PopREM DATE 2007REM DISCID F70B8711REM COMMENT "ExactAudioCopy v0.99pb4"PERFORMER "Андрій Заліско"TITLE "Різдвяний"FILE "Андрій Заліско - Різдвяний.wav" WAVE  TRACK 01 AUDIO    TITLE "Вступ"    PERFORMER "Андрій Заліско"    FLAGS DCP    INDEX 01 00:00:00  TRACK 02 AUDIO    TITLE "По всьому світу (з Андріаною)"    PERFORMER "Андрій Заліско"    FLAGS DCP    INDEX 01 00:57:41  TRACK 03 AUDIO    TITLE "Слава Вовишніх Богу"    PERFORMER "Андрій Заліско"    FLAGS DCP    INDEX 00 04:43:08    INDEX 01 04:45:08  TRACK 04 AUDIO    TITLE "Нова радість стала (a capella з 'Львівськими музиками')"    PERFORMER "Андрій Заліско"    FLAGS DCP    INDEX 00 09:23:16    INDEX 01 09:25:16  TRACK 05 AUDIO    TITLE "На небі зірка ясна засіяла"    PERFORMER "Андрій Заліско"    FLAGS DCP    INDEX 00 13:16:55    INDEX 01 13:18:55  TRACK 06 AUDIO    TITLE "Бог ся рождає (колядує Наталка Карпа)"    PERFORMER "Андрій Заліско"    FLAGS DCP    INDEX 00 15:55:68    INDEX 01 15:57:68  TRACK 07 AUDIO    TITLE "Зійшла зірка чудна"    PERFORMER "Андрій Заліско"    FLAGS DCP    INDEX 00 18:20:71    INDEX 01 18:22:71  TRACK 08 AUDIO    TITLE "Бог Предвічний"    PERFORMER "Андрій Заліско"    FLAGS DCP    INDEX 00 21:37:71    INDEX 01 21:39:70  TRACK 09 AUDIO    TITLE "Щедрий вечір - добрий вечір (колядує Олена Корнєєва)"    PERFORMER "Андрій Заліско"    FLAGS DCP    INDEX 00 25:49:74    INDEX 01 25:51:74  TRACK 10 AUDIO    TITLE "Старий рік минає (інструментал)"    PERFORMER "Андрій Заліско"    FLAGS DCP    INDEX 00 29:03:43    INDEX 01 29:05:42  TRACK 11 AUDIO    TITLE "Возвеселімся всі разом нині"    PERFORMER "Андрій Заліско"    FLAGS DCP    INDEX 01 29:45:04  TRACK 12 AUDIO    TITLE "Темная ніченька"    PERFORMER "Андрій Заліско"    FLAGS DCP    INDEX 00 33:01:64    INDEX 01 33:03:64  TRACK 13 AUDIO    TITLE "Нова радість стала (колядує Ліля Ваврін)"    PERFORMER "Андрій Заліско"    FLAGS DCP    INDEX 00 36:13:06    INDEX 01 36:15:06  TRACK 14 AUDIO    TITLE "Ой, чи є, чи нема"    PERFORMER "Андрій Заліско"    FLAGS DCP    INDEX 00 38:49:48    INDEX 01 38:51:48  TRACK 15 AUDIO    TITLE "Божий син днесь народився"    PERFORMER "Андрій Заліско"    FLAGS DCP    INDEX 00 42:02:15    INDEX 01 42:04:14  TRACK 16 AUDIO    TITLE "Закінчення"    PERFORMER "Андрій Заліско"    FLAGS DCP    INDEX 01 44:33:70  TRACK 17 AUDIO    TITLE "Різдвяно-Новорічна (з Наталкою Карпою, Ната-Лі, гуртом 'Яка ІснуЄ', Maximus)"    PERFORMER "Андрій Заліско"    FLAGS DCP    INDEX 00 45:08:67    INDEX 01 45:10:66

Лог проверки качества

CUE Corrector v. 8.3.5 / b. 905 (Jan. 31, 2019)————————————————————————————————————————————————————————————————————————Андрій Заліско / РіздвянийCUE file: Андрій Заліско - Різдвяний.ape.cueAudio file: Андрій Заліско - Різдвяний.ape [49:11.667; APE • 942 kbps • 16 bit \ 44100 Hz • stereo; 331.70 MB (347 807 764 B)]Accuracy: -m0Track 01 - Вступ                                                                        -  99% CDDA [00:57.547]Track 02 - По всьому світу (з Андріаною)                                                - 100% CDDA [03:47.560]Track 03 - Слава Вовишніх Богу                                                          - 100% CDDA [04:40.107]Track 04 - Нова радість стала (a capella з 'Львівськими музиками')                      - 100% CDDA [03:53.520]Track 05 - На небі зірка ясна засіяла                                                   - 100% CDDA [02:39.173]Track 06 - Бог ся рождає (колядує Наталка Карпа)                                        - 100% CDDA [02:25.040]Track 07 - Зійшла зірка чудна                                                           -  99% CDDA [03:16.987]Track 08 - Бог Предвічний                                                               - 100% CDDA [04:12.053]Track 09 - Щедрий вечір - добрий вечір (колядує Олена Корнєєва)                         -  95% MPEG [03:13.573]Track 10 - Старий рік минає (інструментал)                                              - 100% CDDA [00:39.493]Track 11 - Возвеселімся всі разом нині                                                  - 100% CDDA [03:18.800]Track 12 - Темная ніченька                                                              - 100% CDDA [03:11.227]Track 13 - Нова радість стала (колядує Ліля Ваврін)                                     -  95% MPEG [02:36.560]Track 14 - Ой, чи є, чи нема                                                            -  99% CDDA [03:12.547]Track 15 - Божий син днесь народився                                                    - 100% CDDA [02:29.747]Track 16 - Закінчення                                                                   -  97% MPEG [00:36.947]Track 17 - Різдвяно-Новорічна (з Наталкою Карпою, Ната-Лі, гуртом 'Яка ІснуЄ', Maximus) - 100% CDDA [04:00.787]————— Summary: —————These tracks looks like CDDA with probability 100%.————————————————————————————————————————————————————————————————————————ANALYZER:    auCDtect: CD records authenticity detector, version 0.8.2    Copyright (c) 2004 Oleg Berngardt. All rights reserved.    Copyright (c) 2004 Alexander Djourik. All rights reserved.Time elapsed: 1 m 45 sLog created at February 08, 2019 13:11:34=== 16A147D0A187255AE905586DF9115CD4C77CB7C8747AAF55E8A6F3924583E8CE ===

Скриншот спектра частот

Об исполнителе (группе)

Андрій Заліско сам родом зі Львова, і першу популярність він отримав саме там. Сценічний шлях Заліска триває вже більше 10 років – спочатку Львів, згодом він став популярним у Західній Україні. Професійність зростає – зростають, відповідно, і амбіції. Це нормально – особливо, якщо є підстави, а вони дійсно є. Наприклад, перший наклад нового альбому "Різдвяний" розлетівся буквально за пару тижнів. Зважаючи на відсутність реклами альбому на центральних теле- і радіоканалах – це дійсно гарний результат. Втім, достатньо послухати платівку, аби погодитись – нічого дивного немає в її популярності. І тут можна знайти два чинники. По-перше, альбом "Різдвяний" вийшов дуже вчасно, видавці нічого не наплутали зі строками, і це добре. По-друге ж, альбом з такою конкретною тематикою зобов’язаний бути якісним, інакше його актуальність протримається не більше місяця – і все. Влітку різдвяні альбоми купують на диво зрідка, а наступного року його згадують знов лише за умови, що все зроблено таки справді добре. Що ж – схоже, наступного року про цю платівку Андрія Заліска не забудуть, бо слухати її таки приємно. А Ви що на це скажете?

Запасной постер

Чтобы скачать этот контент, Вам необходимо:
1. Скачать и установить торрент-клиент [клик для Windows], (для мобильного найдите на Play Маркет).
2. Кликнуть по [Скачать]


Внимание.
Если проверка ВЫ НЕ РОБОТ - не работает, значит Вы используете устаревший браузер.
Установите актуальный браузер и повторно кликните по [Скачать]
Безопасность: торрент-клиент разрешён АВ Касперского.

[asmlocator.ru].t608698.torrent 
Торрент: Зарегистрирован [ 2019-02-08 14:20 ] · C4360B4C8F004E3B679F3B8EED8E9EF1CD8D3B0A

Скачать .torrent

Скачать

14 KB

Статус: проверено
Скачан: 0 раз
Размер: 335 MB
terms.php
[Профиль] [ЛС]
Показать сообщения:    
Ответить на тему

Текущее время: 15-Ноя 19:19

Часовой пояс: UTC ± 0



Вы не можете начинать темы
Вы не можете отвечать на сообщения
Вы не можете редактировать свои сообщения
Вы не можете удалять свои сообщения
Вы не можете голосовать в опросах
Вы не можете прикреплять файлы к сообщениям
Вы можете скачивать файлы
Верим фактам, а не вранью Путина! Факт, что Правительство ведёт Россию к истреблению.
Так как численность населения падает, даже не смотря на приток эмигрантов!
Русская нация вымирает и вырождается, смешиваясь с эмигрантами!
Факт, что военных и граждан предприятий заставляют голосовать за партию Единая Россия и Путина
ПОД СТРАХОМ УВОЛЬНЕНИЯ!
Нам не нужно Правительство, блокирующее личную жизнь, интернет, нарушающее сохранность данных.
Все эти действия финансируются за счёт народа!