(Hardcore, Punk) The Exploited - Don’t Forget The Chaos (Deluxe Edition) - (Cleopatra Records [CLP1253-2]) - CD - 2002, APE (image+.cue), lossless

Ответить на тему
Статистика раздачи
Размер:  240 MB   |    Зарегистрирован:  8 месяцев 13 дней   |    Скачан:  0 раз

Полного источника не было: Никогда

 
   
 
 
Автор Сообщение

star21 ®

Пол: Женский

Стаж: 3 года 11 месяцев

Сообщений: 551988

Откуда: Екатеринбург

Создавать темы 07-Фев-2019 15:36

[Цитировать]

The Exploited - Don’t Forget The Chaos (Deluxe Edition) Жанр: Hardcore, Punk
Страна-производитель диска: US
Год издания: 15.10.2002
Издатель (лейбл): Cleopatra Records
Номер по каталогу: CLP1253-2
Страна: Scotland
Аудиокодек: APE (*.ape)
Тип рипа: image+.cue
Битрейт аудио: lossless
Продолжительность: 00:40:40
Источник (релизер): из сети
Наличие сканов в содержимом раздачи: нетТреклист:
01. Rage Against Time
02. Propaganda
03. Let’s Start A War
04. God Saved The Queen
05. Dead Cities
06. UK ‘82
07. Rival Leaders
08. Cop Cars
09. Psycho
10. Sex & Violence
11. Exploited Blarmy Army
12. Army Life
13. Wankers
14. Anarchy
15. Alternatives
16. Jimmy Boyle
17. Punk’s Not Dead
18. Dogs Of War

Лог создания рипа

Exact Audio Copy V0.99 prebeta 4 from 23. January 2008Отчёт EAC об извлечении, выполненном 13. декабря 2008, 18:35The Exploited / Don't Forget The ChaosДисковод: _NEC    DVD_RW ND-4551A   Adapter: 1  ID: 0Режим чтения                 : ДостоверностьИспользование точного потока : ДаОтключение кэша аудио        : ДаИспользование указателей C2  : НетКоррекция смещения при чтении                     : 48Способность читать области Lead-in и Lead-out     : НетЗаполнение пропущенных сэмплов тишиной            : ДаУдаление блоков с тишиной в начале и конце        : НетПри вычислениях CRC использовались нулевые сэмплы : НетИнтерфейс                                         : Встроенный Win32-интерфейс для Win NT/2000Выходной формат : Внутренние WAV-операцииФормат сэмплов  : 44.100 Гц; 16 бит; стереоTOC извлечённого CD     Трек |   Старт  | Длительность | Начальный сектор | Конечный сектор    ---------------------------------------------------------------------       1  |  0:00.00 |    4:19.62   |           0      |      19486       2  |  4:19.62 |    2:24.30   |       19487      |      30316       3  |  6:44.17 |    3:15.03   |       30317      |      44944       4  |  9:59.20 |    3:32.52   |       44945      |      60896       5  | 13:31.72 |    1:49.70   |       60897      |      69141       6  | 15:21.67 |    2:36.10   |       69142      |      80851       7  | 17:58.02 |    2:26.18   |       80852      |      91819       8  | 20:24.20 |    1:49.07   |       91820      |     100001       9  | 22:13.27 |    2:02.28   |      100002      |     109179      10  | 24:15.55 |    3:01.47   |      109180      |     122801      11  | 27:17.27 |    2:12.53   |      122802      |     132754      12  | 29:30.05 |    1:43.25   |      132755      |     140504      13  | 31:13.30 |    2:03.60   |      140505      |     149789      14  | 33:17.15 |    1:31.20   |      149790      |     156634      15  | 34:48.35 |    1:49.42   |      156635      |     164851      16  | 36:38.02 |    1:29.70   |      164852      |     171596      17  | 38:07.72 |    1:15.43   |      171597      |     177264      18  | 39:23.40 |    1:17.27   |      177265      |     183066Характеристики диапазона извлечения и сообщения об ошибкахВыбранный диапазон     Имя файла D:\Temp_grab\Rock\The Exploited - Don't Forget The Chaos.wav     Пиковый уровень 100.0 %     Качество диапазона 100.0 %     CRC копии FA3DA987     Копирование... OKОшибок не произошлоКонец отчёта

Содержание индексной карты (.CUE)

REM GENRE PunkREM DATE 2002REM DISCID F0098812REM COMMENT "ExactAudioCopy v0.99pb4"PERFORMER "The Exploited"TITLE "Don't Forget The Chaos (Deluxe Edition)"FILE "The Exploited - Don't Forget The Chaos.ape" WAVE  TRACK 01 AUDIO    TITLE "Rage Against Time"    PERFORMER "The Exploited"    FLAGS DCP    INDEX 01 00:00:00  TRACK 02 AUDIO    TITLE "Propaganda"    PERFORMER "The Exploited"    FLAGS DCP    INDEX 01 04:19:62  TRACK 03 AUDIO    TITLE "Let's Start A War"    PERFORMER "The Exploited"    FLAGS DCP    INDEX 01 06:44:17  TRACK 04 AUDIO    TITLE "God Saved The Queen"    PERFORMER "The Exploited"    FLAGS DCP    INDEX 01 09:59:20  TRACK 05 AUDIO    TITLE "Dead Cities"    PERFORMER "The Exploited"    FLAGS DCP    INDEX 01 13:31:72  TRACK 06 AUDIO    TITLE "UK '82"    PERFORMER "The Exploited"    FLAGS DCP    INDEX 01 15:21:67  TRACK 07 AUDIO    TITLE "Rival Leaders"    PERFORMER "The Exploited"    FLAGS DCP    INDEX 01 17:58:02  TRACK 08 AUDIO    TITLE "Cop Cars"    PERFORMER "The Exploited"    FLAGS DCP    INDEX 01 20:24:20  TRACK 09 AUDIO    TITLE "Psycho"    PERFORMER "The Exploited"    FLAGS DCP    INDEX 01 22:13:27  TRACK 10 AUDIO    TITLE "Sex & Violence"    PERFORMER "The Exploited"    FLAGS DCP    INDEX 01 24:15:55  TRACK 11 AUDIO    TITLE "Exploited Blarmy Army"    PERFORMER "The Exploited"    FLAGS DCP    INDEX 01 27:17:27  TRACK 12 AUDIO    TITLE "Army Life"    PERFORMER "The Exploited"    FLAGS DCP    INDEX 01 29:30:05  TRACK 13 AUDIO    TITLE "Wankers"    PERFORMER "The Exploited"    FLAGS DCP    INDEX 01 31:13:30  TRACK 14 AUDIO    TITLE "Anarchy"    PERFORMER "The Exploited"    FLAGS DCP    INDEX 01 33:17:15  TRACK 15 AUDIO    TITLE "Alternatives"    PERFORMER "The Exploited"    FLAGS DCP    INDEX 01 34:48:35  TRACK 16 AUDIO    TITLE "Jimmy Boyle"    PERFORMER "The Exploited"    FLAGS DCP    INDEX 01 36:38:02  TRACK 17 AUDIO    TITLE "Punk's Not Dead"    PERFORMER "The Exploited"    FLAGS DCP    INDEX 01 38:07:72  TRACK 18 AUDIO    TITLE "Dogs Of War"    PERFORMER "The Exploited"    FLAGS DCP    INDEX 01 39:23:40

Info

• Limited, special deluxe edition of this career-spanning retrospective from one of the UK’s most influentual notorious punk bands, The Exploited!• Includes many of songs that launched a thousand punk bands such as the hit singles “Army Life,” “Exploited Blarmy Army,” “Dead Cities,” “Punk’s Not Dead” and more!• Deluxe mini-LP packaging, liner notes and a free poster inside!Formed in Edinburgh, June 1979, The Exploited were the brainchild of Wattie Buchan. The band released two singles (“Army Life” and “Exploited Barmy Army”) in 1980 on their own label, both of which charted on the UK Independent Chart and stayed there for a combined total of over 130 weeks. This was more than enough to propel the band to the forefront of the current new/real punk scene coming out of Europe. After signing a deal with Secret Records, The Exploited released their debut album Punk’s Not Dead - a raw and gritty beast, musically more akin to the emerging hardcore scene - which took off straight away, storming the National Album Chart and reaching the dizzy heights of #20. Through extensive tours, filling many of the UK’s biggest venues, the group expanded their following, even invading the living rooms of millions when they appeared on the BBC TV show Top Of The Pops. Unfortunately, at the peak of their success, Buchan and Co experienced major difficulties and soon parted ways with their label. But Buchan, ever the trooper, soldiered on by re-launching the group in 1985 with a new line-up. They released a respectable set of records and continually performed around the UK, all the while watching the legend of the band grow. Don’t Forget The Chaos is an amazing retrospective of the halcion days of The Exploited’s legendary career.

Чтобы скачать этот контент, Вам необходимо:
1. Скачать и установить торрент-клиент [клик для Windows], (для мобильного найдите на Play Маркет).
2. Кликнуть по [Скачать]


Внимание.
Если проверка ВЫ НЕ РОБОТ - не работает, значит Вы используете устаревший браузер.
Установите актуальный браузер и повторно кликните по [Скачать]
Безопасность: торрент-клиент разрешён АВ Касперского.

[asmlocator.ru].t608295.torrent 
Торрент: Зарегистрирован [ 2019-02-07 15:35 ] · 5B40FA8AB03022368938005EE675F4E005BC01CE

Скачать .torrent

Скачать

19 KB

Статус: проверено
Скачан: 0 раз
Размер: 240 MB
terms.php
[Профиль] [ЛС]
Показать сообщения:    
Ответить на тему

Текущее время: 21-Окт 14:09

Часовой пояс: UTC ± 0



Вы не можете начинать темы
Вы не можете отвечать на сообщения
Вы не можете редактировать свои сообщения
Вы не можете удалять свои сообщения
Вы не можете голосовать в опросах
Вы не можете прикреплять файлы к сообщениям
Вы можете скачивать файлы
Верим фактам, а не вранью Путина! Факт, что Правительство ведёт Россию к истреблению.
Так как численность населения падает, даже не смотря на приток эмигрантов!
Русская нация вымирает и вырождается, смешиваясь с эмигрантами!
Факт, что военных и граждан предприятий заставляют голосовать за партию Единая Россия и Путина
ПОД СТРАХОМ УВОЛЬНЕНИЯ!
Нам не нужно Правительство, блокирующее личную жизнь, интернет, нарушающее сохранность данных.
Все эти действия финансируются за счёт народа!