Александр Дюмин. Сольный концерт в Санкт-Петербурге 2016 [2016, Шансон, WEBRip]

Reply to topic
DL-List and Torrent activity
Size:  845 MB   |    Registered:  2 months 19 days   |    Completed:  0 times

Seeder not seen: 2 months 3 days

 
   
 
 
Author Message

star21 ®

Gender: Female

Longevity: 3 years 5 months

Posts: 552370

Location: Екатеринбург

Post 06-Feb-2019 20:41

[Quote]

Александр Дюмин. Сольный концерт в Санкт-Петербурге 2016 Страна: Россия
Жанр: Шансон
Продолжительность: 01:36:03
Год выпуска: 2016
Качество: WEBRip
Контейнер: MP4
Видео кодек: VC-1
Аудио кодек: AAC
Видео: avc1, 1280x720, 16:9, 1101 kb/s, 25.000 FPS
Аудио: mp4a, 126 kb/s, 44,1KHz, 2chАлександр Дюмин – музыкант и исполнитель, выступает в жанре русского шансона. Как говорит сам музыкант, он не поэт, ведь его песни отражают его состояние души, а оно не всегда укладывается в рифмы. Другой представитель русского шансона Слава Медяник называет стиль Дюмина – хард-шансоном, потому что его песни отражают даже те темы, которые сейчас принято замалчивать и тактично обходить стороной. Сегодня Александр активно работает с новыми композициями, дает концерты в России и зарубежье.Большой сольный концерт Александра Дюмина с презентацией нового альбома "Не жалею" и все хиты: "Зараза,брось", "Белая", "Неволя", "Боль", "Люберцы", "Белая береза" и другие.

Скриншоты

Треклист

00 Цветы из камня
01 Елочки
02 Друзья
03 Братушка
04 Тополя
05 Неволя
06 Человек с гитарою
07 Сон
08 Стужа-зима
09 Белый туман
10 Отпусти меня
11 Серые цветы
12 Белая
13 Белая береза
14 Зараза
15 Роза
16 Аленка
17 Кареглазая
18 Не жалею, не зову, не плачу
19 Люберцы
20 Боль

Отчёт MediaInfo

Общее
Формат : MPEG-4
Профиль формата : Base Media / Version 2
Идентификатор кодека : mp42 (isom/mp42)
Размер файла : 845 Мбайт
Продолжительность : 1 ч. 36 м.
Режим общего битрейта : Переменный
Общий поток : 1230 Кбит/сек
Дата кодирования : UTC 2018-10-27 07:36:05
Дата пометки : UTC 2018-10-27 07:36:05
gsst : 0
gstd : 5763726Видео
Идентификатор : 1
Формат : AVC
Формат/Информация : Advanced Video Codec
Профиль формата : Main@L3.1
Настройки формата : CABAC / 3 Ref Frames
Параметр CABAC формата : Да
Параметр RefFrames формата : 3 кадра
Идентификатор кодека : avc1
Идентификатор кодека/Информация : Advanced Video Coding
Продолжительность : 1 ч. 36 м.
Битрейт : 1101 Кбит/сек
Ширина : 1280 пикселей
Высота : 720 пикселей
Соотношение сторон : 16:9
Режим частоты кадров : Постоянный
Частота кадров : 25,000 кадров/сек
Цветовое пространство : YUV
Субдискретизация насыщенности : 4:2:0
Битовая глубина : 8 бит
Тип развёртки : Прогрессивная
Бит/(Пиксели*Кадры) : 0.048
Размер потока : 756 Мбайт (89%)
Заголовок : ISO Media file produced by Google Inc. Created on: 10/27/2018.
Дата кодирования : UTC 2018-10-27 07:36:05
Дата пометки : UTC 2018-10-27 07:36:05
Цветовой диапазон : Limited
Основные цвета : BT.709
Характеристики трансфера : BT.709
Коэффициенты матрицы : BT.709
Codec configuration box : avcCАудио
Идентификатор : 2
Формат : AAC LC
Формат/Информация : Advanced Audio Codec Low Complexity
Идентификатор кодека : mp4a-40-2
Продолжительность : 1 ч. 36 м.
Вид битрейта : Переменный
Битрейт : 126 Кбит/сек
Каналы : 2 канала
Channel layout : L R
Частота : 44,1 КГц
Частота кадров : 43,066 кадра/сек (1024 SPF)
Метод сжатия : С потерями
Размер потока : 86,3 Мбайт (10%)
Заголовок : ISO Media file produced by Google Inc. Created on: 10/27/2018.
Язык : English
Дата кодирования : UTC 2018-10-27 07:36:05
Дата пометки : UTC 2018-10-27 07:36:05

To download the content you need:
1. Download and install torrent client [for Windows] or for mobile system
2. Click on [Download]
Attention.
If the test YOU are NOT a ROBOT - does not work, then You are using an outdated browser.
Install the current browser and click on [Download]
Security: torrent client is allowed by Kaspersky.

[asmlocator.ru].t607531.torrent 
Torrent: Registered [ 2019-02-06 20:40 ] · 5362EF3639729B5D467488F96FC769824952E7CD

Download .torrent

Download

17 KB

Status: checked
Completed: 0 times
Size: 845 MB
terms.php
[Profile] [PM]
Display posts:    
Reply to topic

Current time is: 26-Apr 08:30

All times are UTC ± 0



You cannot post new topics in this forum
You cannot reply to topics in this forum
You cannot edit your posts in this forum
You cannot delete your posts in this forum
You cannot vote in polls in this forum
You cannot attach files in this forum
You can download files in this forum