mewithoutYou - [A→B] Live [2018, Indie / Post-Hardcore, HDRip 1080p]

Reply to topic
DL-List and Torrent activity
Size:  3.06 GB   |    Registered:  2 months 19 days   |    Completed:  0 times

Seeder not seen: Never

 
   
 
 
Author Message

star21 ®

Gender: Female

Longevity: 3 years 5 months

Posts: 552370

Location: Екатеринбург

Post 06-Feb-2019 14:05

[Quote]

mewithoutYou - [A→B] Live [2018, Indie / Post-Hardcore, HDRip 1080p]Страна: USA
Жанр: Indie / Post-Hardcore
Продолжительность: 1:24:77
Год выпуска: 2018
Качество: HDRip
Контейнер: MP4
Видео кодек: H.264
Аудио кодек: AAC
Видео: MPEG4 (H264), 1920x1080, 16:9, 4986kbps, 23.976fps
Аудио: AAC, 137kbps, 48000Hz, 2 channelsОписание: This concert documentary blends the full live performance of the final hometown show of mewithoutYou's "[A→B] Life 15th anniversary tour" with interviews and archival footage to tell the story of the band's evolution and emotions as they revisit their debut record.Дополнительно: https://mewithoutyou.com/products/a-b-live-concertfilm

Track-list

Album Set:
Bullet to Binary
The Ghost
Nice & Blue
Everything Was Beautiful and Nothing Hurt
(A)
Gentlemen
Be Still Child
We Know Who Are Enemies Are
I Never Said I Was Brave
(B)
Silencer
The Cure For PainBonus Encore Set:
Magic Lantern Days (Acoustic)
The Fox, The Crow, and the Cookie (Acoustic)
Red Cow
Wolf Am I (and Shadow!)
In a Sweater Poorly Knit
Torches Together
January 1979
Son of a Widow
Nice and Blue (pt. Two)

Credits

Produced by Arsenal Mediaworks
Directed by Colin Comstock
Edited by Colin Comstock & James O'Brien III
Mixed by Michael Lane
Mastered by Hans Dekline

Mediainfo

General
Format : MPEG-4
Format profile : Base Media / Version 2
Codec ID : mp42
File size : 1.75 GiB
Duration : 48mn 43s
Overall bit rate mode : Variable
Overall bit rate : 5 127 Kbps
Encoded date : UTC 2018-07-03 18:44:39
Tagged date : UTC 2018-07-03 18:44:39Video
ID : 1
Format : AVC
Format/Info : Advanced Video Codec
Format profile : High@L4.0
Format settings, CABAC : Yes
Format settings, ReFrames : 5 frames
Codec ID : avc1
Codec ID/Info : Advanced Video Coding
Duration : 48mn 43s
Bit rate : 5 000 Kbps
Width : 1 920 pixels
Height : 1 080 pixels
Display aspect ratio : 16:9
Frame rate mode : Constant
Frame rate : 23.976 fps
Color space : YUV
Chroma subsampling : 4:2:0
Bit depth : 8 bits
Scan type : Progressive
Bits/(Pixel*Frame) : 0.101
Stream size : 1.70 GiB (97%)
Writing library : x264 core 155 r10 7d0ff22
Encoding settings : cabac=1 / ref=5 / deblock=1:0:0 / analyse=0x3:0x113 / me=hex / subme=8 / psy=1 / psy_rd=1.00:0.00 / mixed_ref=1 / me_range=16 / chroma_me=1 / trellis=2 / 8x8dct=1 / cqm=0 / deadzone=21,11 / fast_pskip=1 / chroma_qp_offset=-2 / threads=34 / lookahead_threads=5 / sliced_threads=0 / nr=0 / decimate=1 / interlaced=0 / bluray_compat=0 / stitchable=1 / constrained_intra=0 / bframes=3 / b_pyramid=2 / b_adapt=2 / b_bias=0 / direct=3 / weightb=1 / open_gop=0 / weightp=2 / keyint=infinite / keyint_min=23 / scenecut=40 / intra_refresh=0 / rc_lookahead=50 / rc=2pass / mbtree=1 / bitrate=5000 / ratetol=1.0 / qcomp=0.60 / qpmin=5 / qpmax=69 / qpstep=4 / cplxblur=20.0 / qblur=0.5 / vbv_maxrate=5500 / vbv_bufsize=15000 / nal_hrd=none / filler=0 / ip_ratio=1.40 / aq=1:1.00
Encoded date : UTC 2018-07-03 18:44:39
Tagged date : UTC 2018-07-03 18:44:39
Color primaries : BT.709
Transfer characteristics : BT.709
Matrix coefficients : BT.709Audio
ID : 2
Format : AAC
Format/Info : Advanced Audio Codec
Format profile : LC
Codec ID : 40
Duration : 48mn 43s
Bit rate mode : Variable
Bit rate : 137 Kbps
Channel(s) : 2 channels
Channel positions : Front: L R
Sampling rate : 48.0 KHz
Compression mode : Lossy
Stream size : 47.8 MiB (3%)
Encoded date : UTC 2018-07-03 18:44:39
Tagged date : UTC 2018-07-03 18:44:39

Скриншоты


To download the content you need:
1. Download and install torrent client [for Windows] or for mobile system
2. Click on [Download]
Attention.
If the test YOU are NOT a ROBOT - does not work, then You are using an outdated browser.
Install the current browser and click on [Download]
Security: torrent client is allowed by Kaspersky.

[asmlocator.ru].t607353.torrent 
Torrent: Registered [ 2019-02-06 14:05 ] · 7C3631D969868E4CEE928B0F475E878C5091361B

Download .torrent

Download

16 KB

Status: checked
Completed: 0 times
Size: 3.06 GB
terms.php
[Profile] [PM]
Display posts:    
Reply to topic

Current time is: 26-Apr 08:33

All times are UTC ± 0



You cannot post new topics in this forum
You cannot reply to topics in this forum
You cannot edit your posts in this forum
You cannot delete your posts in this forum
You cannot vote in polls in this forum
You cannot attach files in this forum
You can download files in this forum