Аполлон 13 / Apollo 13 (Рон Ховард / Ron Howard) [1995, США, драма, история, DVDRip-AVC] [Fullscreen] Dub + Original (Eng) + Sub (Rus, Eng)

Ответить на тему
Статистика раздачи
Размер:  2,91 GB   |    Зарегистрирован:  18 дней   |    Скачан:  0 раз

Полного источника не было: Никогда

 
   
 
 
Автор Сообщение

star21 ®

Пол: Женский

Стаж: 3 года 3 месяца

Сообщений: 552536

Откуда: Екатеринбург

Создавать темы 02-Фев-2019 16:50

[Цитировать]

Аполлон 13 / Apollo 13 | Fullscreen Страна: США
Жанр: драма, история
Год выпуска: 1995
Продолжительность: 02:19:51Перевод: Профессиональный (дублированный)
Субтитры: русские, английские
Оригинальная аудиодорожка: английскаяРежиссер: Рон Ховард / Ron HowardВ ролях: Том Хэнкс, Билл Пэкстон, Кевин Бэйкон, Гари Синиз, Эд Харрис, Кэтлин Куинлэн, Мэри Кейт Шеллхардт, Эмили Энн Ллойд, Мико Хьюз, Макс Эллиотт Слэйд, Трэйси Рейнер, Дэвид Эндрюс, Мишель Литтл, Крис Эллис, Джо Спано, Ксандер Беркли, Марк МакКлюр, Бен Марли, Клинт Ховард, Лорен Дин и др.Описание: Драматичная история экипажа «Аполлон-13», чьей задачей были высадка на поверхность Луны и проведение научных исследований. Однако ещё во время полёта на корабле произошла серьёзная авария, которая сделала невозможным высадку и поставила под угрозу жизни астронавтов.Доп. информация: Полноэкранная версия.Сэмпл: https://yadi.sk/i/aMQZk6CLTtZ66AКачество видео: DVDRip-AVC
Формат видео: MKVВидео: AVC, 720x480 (4:3) @ 720x540, 23.976fps, 2 526 kbps, 0.305 bits/pixel
Аудио 1: AC-3, 48.0 kHz, ~224.00 kbps, 2/0 (L,R) ch, Dubbing
Аудио 2: AC-3, 48.0 kHz, ~224.00 kbps, 2/0 (L,R) ch, Original
Формат субтитров: softsub (SRT)
Большое спасибо GambitХ за DVD.

MediaInfo

x264 log

Standard error streamavs [info]: 720x480p 8:9 @ 24000/1001 fps (cfr)x264 [info]: using SAR=8/9x264 [info]: using cpu capabilities: MMX2 SSE2Fast LZCNTx264 [info]: profile High, level 4.1, 4:2:0, 8-bitx264 [info]: frame I:1586  Avg QP:15.39  size: 56425x264 [info]: frame P:43452 Avg QP:17.83  size: 26677x264 [info]: frame B:156152 Avg QP:19.72  size:  8968x264 [info]: consecutive B-frames:  2.1%  2.7% 15.1%  4.8%  6.8% 65.7%  1.9%  0.3%  0.2%  0.1%  0.2%x264 [info]: mb I  I16..4:  3.7% 88.3%  8.0%x264 [info]: mb P  I16..4:  0.8% 28.8%  1.7%  P16..4: 29.8% 19.5% 15.2%  0.8%  0.2%    skip: 3.2%x264 [info]: mb B  I16..4:  0.1%  2.2%  0.1%  B16..8: 48.7% 12.6%  3.0%  direct:11.7%  skip:21.6%  L0:31.9% L1:25.8% BI:42.3%x264 [info]: 8x8 transform intra:91.3% inter:56.4%x264 [info]: direct mvs  spatial:97.2% temporal:2.8%x264 [info]: coded y,uvDC,uvAC intra: 94.8% 92.6% 76.3% inter: 42.8% 47.5% 14.3%x264 [info]: i16 v,h,dc,p: 31% 11% 11% 48%x264 [info]: i8 v,h,dc,ddl,ddr,vr,hd,vl,hu: 13% 13% 27%  6%  8%  7%  8%  8% 11%x264 [info]: i4 v,h,dc,ddl,ddr,vr,hd,vl,hu: 11%  9%  5%  9% 16% 15% 14% 10% 11%x264 [info]: i8c dc,h,v,p: 48% 21% 17% 14%x264 [info]: Weighted P-Frames: Y:9.6% UV:2.3%x264 [info]: ref P L0: 47.2% 15.4% 16.6%  4.4%  4.6%  2.6%  2.9%  1.4%  1.6%  1.1%  1.2%  1.0%  0.2%  0.0%x264 [info]: ref B L0: 84.1%  9.1%  2.4%  1.3%  0.8%  0.7%  0.5%  0.4%  0.3%  0.2%  0.1%x264 [info]: ref B L1: 97.6%  2.4%x264 [info]: kb/s:2525.46encoded 201190 frames, 4.98 fps, 2525.46 kb/s
GeneralUnique ID                   : 336118939030625425012293800742904789492 (0xFCDE2728170A804A8004954084E5F9F4)Complete name               : D:\uTorrent\Upload\Аполлон 13 (1995) DVDRip-AVC Fullscreen.mkvFormat                      : MatroskaFormat version              : Version 4File size                   : 2.91 GiBDuration                    : 2 h 19 minOverall bit rate            : 2 976 kb/sEncoded date                : UTC 2019-02-02 12:11:15Writing application         : mkvmerge v30.1.0 ('Forever And More') 32-bitWriting library             : libebml v1.3.6 + libmatroska v1.4.9VideoID                          : 1Format                      : AVCFormat/Info                 : Advanced Video CodecFormat profile              : High@L4.1Format settings             : CABAC / 12 Ref FramesFormat settings, CABAC      : YesFormat settings, ReFrames   : 12 framesCodec ID                    : V_MPEG4/ISO/AVCDuration                    : 2 h 19 minBit rate                    : 2 526 kb/sWidth                       : 720 pixelsHeight                      : 480 pixelsDisplay aspect ratio        : 4:3Frame rate mode             : ConstantFrame rate                  : 23.976 (24000/1001) FPSColor space                 : YUVChroma subsampling          : 4:2:0Bit depth                   : 8 bitsScan type                   : ProgressiveBits/(Pixel*Frame)          : 0.305Stream size                 : 2.47 GiB (85%)Writing library             : x264 core 157 r2935 545de2fEncoding settings           : cabac=1 / ref=12 / deblock=1:-2:-2 / analyse=0x3:0x133 / me=umh / subme=9 / psy=1 / psy_rd=1.00:0.15 / mixed_ref=1 / me_range=32 / chroma_me=1 / trellis=2 / 8x8dct=1 / cqm=0 / deadzone=21,11 / fast_pskip=0 / chroma_qp_offset=-3 / threads=3 / lookahead_threads=1 / sliced_threads=0 / nr=0 / decimate=0 / interlaced=0 / bluray_compat=0 / constrained_intra=0 / bframes=10 / b_pyramid=2 / b_adapt=2 / b_bias=0 / direct=3 / weightb=1 / open_gop=0 / weightp=2 / keyint=240 / keyint_min=23 / scenecut=40 / intra_refresh=0 / rc_lookahead=60 / rc=2pass / mbtree=0 / bitrate=2526 / ratetol=1.0 / qcomp=0.60 / qpmin=0 / qpmax=69 / qpstep=4 / cplxblur=20.0 / qblur=0.5 / vbv_maxrate=50000 / vbv_bufsize=62500 / nal_hrd=none / filler=0 / ip_ratio=1.40 / pb_ratio=1.30 / aq=1:0.80Default                     : YesForced                      : NoAudio #1ID                          : 2Format                      : AC-3Format/Info                 : Audio Coding 3Commercial name             : Dolby DigitalCodec ID                    : A_AC3Duration                    : 2 h 19 minBit rate mode               : ConstantBit rate                    : 224 kb/sChannel(s)                  : 2 channelsChannel layout              : L RSampling rate               : 48.0 kHzFrame rate                  : 31.250 FPS (1536 SPF)Bit depth                   : 16 bitsCompression mode            : LossyStream size                 : 224 MiB (8%)Title                       : DubbingLanguage                    : RussianService kind                : Complete MainDefault                     : YesForced                      : NoAudio #2ID                          : 3Format                      : AC-3Format/Info                 : Audio Coding 3Commercial name             : Dolby DigitalCodec ID                    : A_AC3Duration                    : 2 h 19 minBit rate mode               : ConstantBit rate                    : 224 kb/sChannel(s)                  : 2 channelsChannel layout              : L RSampling rate               : 48.0 kHzFrame rate                  : 31.250 FPS (1536 SPF)Bit depth                   : 16 bitsCompression mode            : LossyStream size                 : 224 MiB (8%)Title                       : OriginalLanguage                    : EnglishService kind                : Complete MainDefault                     : NoForced                      : NoText #1ID                          : 4Format                      : UTF-8Codec ID                    : S_TEXT/UTF8Codec ID/Info               : UTF-8 Plain TextDuration                    : 2 h 13 minBit rate                    : 134 b/sCount of elements           : 1902Stream size                 : 132 KiB (0%)Language                    : RussianDefault                     : NoForced                      : NoText #2ID                          : 5Format                      : UTF-8Codec ID                    : S_TEXT/UTF8Codec ID/Info               : UTF-8 Plain TextDuration                    : 2 h 13 minBit rate                    : 78 b/sCount of elements           : 1814Stream size                 : 76.7 KiB (0%)Language                    : EnglishDefault                     : NoForced                      : NoMenu00:00:00.000                : :The Moon Walk (Main Titles)00:09:39.113                : :A Slight Change in Destination00:19:49.657                : :Mattingly and the Measles00:34:22.364                : :The Lift-Off00:45:15.851                : :Hello, World00:49:38.681                : :Houston, We Have a Problem...01:02:00.090                : :The Special Report01:05:52.889                : :The Close-Out01:10:05.442                : :The Dark Side01:15:08.512                : :Failure is Not an Option01:17:08.032                : :The Simulator Gambit01:19:42.120                : :The CO2 Problem01:35:13.085                : :A Little Medical Mutiny01:39:11.456                : :The Earth in the Window01:48:21.607                : :Four More Amps01:56:40.106                : :The Damage Done01:58:50.403                : :Farewell, Aquarius02:05:18.358                : :Falling to Earth02:09:07.620                : :Welcome Home02:14:06.086                : :End Titles

Скриншоты

Сравнение с широкоэкранными версиями

Fullscreen -------------------------------------------- Open Matte -------------------------------------------- Widescreen

Чтобы скачать этот контент, Вам необходимо:
1. Скачать и установить торрент-клиент [клик для Windows], (для мобильного найдите на Play Маркет).
2. Кликнуть по [Скачать]


Внимание.
Если проверка ВЫ НЕ РОБОТ - не работает, значит Вы используете устаревший браузер.
Установите актуальный браузер и повторно кликните по [Скачать]
Безопасность: торрент-клиент разрешён АВ Касперского.

[asmlocator.ru].t605530.torrent 
Торрент: Зарегистрирован [ 2019-02-02 16:50 ] · D5480AF5871EC933C67AE5F3CE69C3B024DD2689

Скачать .torrent

Скачать

15 KB

Статус: проверено
Скачан: 0 раз
Размер: 2,91 GB
terms.php
[Профиль] [ЛС]
Показать сообщения:    
Ответить на тему

Текущее время: 20-Фев 20:43

Часовой пояс: UTC ± 0



Вы не можете начинать темы
Вы не можете отвечать на сообщения
Вы не можете редактировать свои сообщения
Вы не можете удалять свои сообщения
Вы не можете голосовать в опросах
Вы не можете прикреплять файлы к сообщениям
Вы можете скачивать файлы