Глубоководный флот: Подводная лодка 707 / Shinkai no Kantai: Submarine 707 / Undersea Fleet Submarine 707F [OVA] [1 из 1] [Без хардсаба] [JAP+SUB] [1997, приключения, фантастика, драма, DVDRip]

Ответить на тему
Статистика раздачи
Размер:  538 MB   |    Зарегистрирован:  18 дней   |    Скачан:  0 раз

Полного источника не было: Никогда

 
   
 
 
Автор Сообщение

star21 ®

Пол: Женский

Стаж: 3 года 3 месяца

Сообщений: 552536

Откуда: Екатеринбург

Создавать темы 02-Фев-2019 14:31

[Цитировать]

Глубоководный флот: Подводная лодка 707 / Shinkai no Kantai: Submarine 707 / Undersea Fleet Submarine 707F / 深海の艦隊 サブマリン707 Страна: Япония
Год выпуска: 1997
Жанр: приключения, фантастика, драма
Тип: OVA
Продолжительность: 46 мин.
Режиссер: Теруо Когуре
Студия: Asahi Sonorama, J.C. Staff, KnackОписание: Загадочный объект атакует и разрушает любой корабль или подводную лодку. Миссия Подлодки 707 - его поиск, во время которого команда встречает кита, приводящего Подлодку 707 в мир Му...
© shiza-projectКачество: DVDRip
Тип релиза: Без хардсаба
Формат видео: MKV
Релиз/Автор рипа: Orphan&m74
Видео: AVC, 704x576, 1 500 kb/s, 25.000 fps, 8 bit
Аудио: jpn(int), Vorbis, 128 kb/s, 48.0 kHz, 2 ch
Субтитры 1: eng(int), ASS, перевод: Orphan&m74
Субтитры 2: dut(int), ASS
Субтитры 3: rus(ext), ASS, перевод: VanTuz

Серия состоит из

#1 Shinkai no Kantai: Submarine 707 - OVA (1 эп.), адаптация манги, 1997
#2 Submarine 707R - OVA (2 эп.), адаптация манги, 2003

Подробные тех. данные

GeneralUnique ID                                : 180291405061556376944173454572099906727 (0x87A2DC9001C03CF3B50786EE1A6EACA7)Complete name                            : F:\1\ZR\Submarine 707\1\[Orphan-m74] Shinkai no Kantai Submarine 707\[Orphan&m74]_Shinkai_no_Kantai_Submarine_707_[0EB62014].mkvFormat                                   : MatroskaFormat version                           : Version 4 / Version 2File size                                : 538 MiBDuration                                 : 46 min 26 sOverall bit rate mode                    : VariableOverall bit rate                         : 1 621 kb/sEncoded date                             : UTC 2010-02-22 21:41:31Writing application                      : mkvmerge v5.9.0 ('On The Loose') built on Dec  9 2012 15:37:01Writing library                          : libebml v1.3.0 + libmatroska v1.4.0Attachments                              : arial.ttf / arialbd.ttf / BellGothicStd-Black.otfVideoID                                       : 1Format                                   : AVCFormat/Info                              : Advanced Video CodecFormat profile                           : High@L4Format settings                          : CABAC / 16 Ref FramesFormat settings, CABAC                   : YesFormat settings, RefFrames               : 16 framesCodec ID                                 : V_MPEG4/ISO/AVCDuration                                 : 46 min 26 sBit rate                                 : 1 500 kb/sWidth                                    : 704 pixelsHeight                                   : 576 pixelsDisplay aspect ratio                     : 4:3Frame rate mode                          : ConstantFrame rate                               : 25.000 FPSStandard                                 : PALColor space                              : YUVChroma subsampling                       : 4:2:0Bit depth                                : 8 bitsScan type                                : ProgressiveBits/(Pixel*Frame)                       : 0.148Stream size                              : 485 MiB (90%)Title                                    : Shinkao no Kantai Submarine 707Writing library                          : x264 core 68 r1183M f21daffEncoding settings                        : cabac=1 / ref=16 / deblock=1:1:1 / analyse=0x3:0x133 / me=tesa / subme=9 / psy_rd=0.6:0.0 / mixed_ref=1 / me_range=32 / chroma_me=1 / trellis=2 / 8x8dct=1 / cqm=0 / deadzone=21,11 / chroma_qp_offset=-2 / threads=6 / nr=0 / decimate=0 / mbaff=0 / bframes=16 / b_pyramid=1 / b_adapt=1 / b_bias=0 / direct=3 / wpredb=0 / keyint=250 / keyint_min=25 / scenecut=40 / rc=2pass / bitrate=1500 / ratetol=1.0 / qcomp=0.60 / qpmin=10 / qpmax=51 / qpstep=4 / cplxblur=20.0 / qblur=0.5 / ip_ratio=1.40 / pb_ratio=1.30 / aq=0Default                                  : YesForced                                   : NoAudioID                                       : 2Format                                   : VorbisFormat settings, Floor                   : 1Codec ID                                 : A_VORBISDuration                                 : 46 min 26 sBit rate mode                            : VariableBit rate                                 : 128 kb/sChannel(s)                               : 2 channelsSampling rate                            : 48.0 kHzCompression mode                         : LossyStream size                              : 42.5 MiB (8%)Title                                    : Japanese audioWriting library                          : aoTuV b5c  (UTC 2008-12-15)Language                                 : JapaneseDefault                                  : YesForced                                   : NoText #1ID                                       : 3Format                                   : ASSCodec ID                                 : S_TEXT/ASSCodec ID/Info                            : Advanced Sub Station AlphaCompression mode                         : LosslessTitle                                    : English styled subtitlesLanguage                                 : EnglishDefault                                  : YesForced                                   : NoText #2ID                                       : 4Format                                   : ASSCodec ID                                 : S_TEXT/ASSCodec ID/Info                            : Advanced Sub Station AlphaCompression mode                         : LosslessTitle                                    : Dutch subtitlesLanguage                                 : DutchDefault                                  : NoForced                                   : NoMenu00:00:00.000                             : en:Prologue00:00:52.780                             : en:The Fall of Mu00:04:41.460                             : en:Treacherous Seas00:07:35.020                             : en:The White Whale00:15:54.120                             : en:First Battle00:21:23.210                             : en:Mu and Magmawell00:30:21.500                             : en:Kenji and Kuneiwa00:35:35.420                             : en:Final Battle00:44:07.220                             : en:Credits

Отличия

http://rutracker.org/forum/viewtopic.php?t=4563255 - наличие субтитров

Скриншоты


Чтобы скачать этот контент, Вам необходимо:
1. Скачать и установить торрент-клиент [клик для Windows], (для мобильного найдите на Play Маркет).
2. Кликнуть по [Скачать]


Внимание.
Если проверка ВЫ НЕ РОБОТ - не работает, значит Вы используете устаревший браузер.
Установите актуальный браузер и повторно кликните по [Скачать]
Безопасность: торрент-клиент разрешён АВ Касперского.

[asmlocator.ru].t605529.torrent 
Торрент: Зарегистрирован [ 2019-02-02 14:30 ] · A55C37437903D389C21BF2A994CB65F70DFDC0D6

Скачать .torrent

Скачать

11 KB

Статус: проверено
Скачан: 0 раз
Размер: 538 MB
terms.php
[Профиль] [ЛС]
Показать сообщения:    
Ответить на тему

Текущее время: 20-Фев 20:43

Часовой пояс: UTC ± 0



Вы не можете начинать темы
Вы не можете отвечать на сообщения
Вы не можете редактировать свои сообщения
Вы не можете удалять свои сообщения
Вы не можете голосовать в опросах
Вы не можете прикреплять файлы к сообщениям
Вы можете скачивать файлы