Холостяк и девчонка / The Bachelor and The Bobby-Soxer (Ирвинг Реис / Irving Reis) [1947, США, комедия, мелодрама, WEB-DL 1080p] AVO (Кузнецов) + Original Eng + Sub Eng

Reply to topic
DL-List and Torrent activity
Size:  6.98 GB   |    Registered:  2 months 23 days   |    Completed:  0 times

Seeder not seen: Never

 
   
 
 
Author Message

star21 ®

Gender: Female

Longevity: 3 years 5 months

Posts: 552370

Location: Екатеринбург

Post 02-Feb-2019 14:31

[Quote]

Холостяк и девчонка / The Bachelor and The Bobby-Soxer Год выпуска: 1947
Страна: США
Жанр: комедия
Продолжительность: 01:35:15
Перевод: Авторский (одноголосый закадровый) Сергей Кузнецов
Субтитры: Английские
Оригинальная аудиодорожка: АнглийскаяРежиссер: Ирвинг Реис / Irving ReisВ ролях: Кэри Грант, Мирна Лой, Ширли Темпл, Руди Вэлли, Рэй Коллинз, Гарри Девенпорт, Джонни Сэндс, Дон Беддоу, Лиллиэн Рэндольф, Веда Энн Борг, Дэн Тобин, Рэнсом М. Шерман, Уильям Бэйкуэлл, Ирвинг Бэйкон, Йен Бернард, Кэрол ХьюзОписание:
Судья Маргарет Тернер слушает одно из очередных гражданских дел о ссоре граждан в ночном клубе Лос-Анжелеса. Одним из участников разбирательства является Дик — плейбой и модный художник. Выслушав нелепые оправдания, судья отпускает всех, выписав предупреждение. После суда Дик направляется читать лекцию о современном искусстве в местную школу, где в него до безумия влюбляется младшая сестра Маргарет — Сьюзен.
Девочка — подросток так сильно увлеклась красавцем художником, что, набравшись смелости и приодевшись в платье сестры, она забралась в его дом и безмятежно уснула на диване в ожидании хозяина. Дик, вернувшись поздно вечером, не сразу обнаруживает незваную гостью. Только он собрался выставить ее за порог, как неожиданно в его дом с криками и шумом ворвались Маргарет и ее друг — помощник окружного прокурора Томми Чемберлен.
Дик арестован и заточен в тюрьму, а убитая горем Сьюзен закатывает скандал. Чтобы охладить любовный пыл младшей Тернер и вызвать разочарование в новом увлечении, юристы на семейном совете решают обязать Дика следовать повсюду за Сьюзен. «Он скоро ей надоест», — говорят они. Делать нечего и герой соглашается на этот нелепое предложение, не садиться же ему в тюрьму…За дорожку спасибо Ultam. | [imdb]http://www.imdb.com/title/tt0039169[/imdb] | СэмплТип релиза: WEB-DL 1080p (SbR)
Контейнер: MKV
Видео: AVC (x264), 1920x1080 (1.33:1), 23.976 fps, 10000 kbps
Аудио 1: Русский AC3 2.0, 48 kHz, 192 kbps
Аудио 2: Английский AC3 1.0, 48 kHz, 192 kbps
Аудио 3: Английский AAC 2.0, 48 kHz, 125 kbps
Формат субтитров: softsub (SRT)

Скриншоты


MI

General
Unique ID : 281096369514160010641609167849287752788 (0xD379310826031787C8EEAE43F5069C54)
Complete name : The.Bachelor.and.the.Bobby-Soxer.1947.1080p.WEB-DL.DD2.0.H.264-SbR.mkv
Format : Matroska
Format version : Version 2
File size : 6.98 GiB
Duration : 1 h 35 min
Overall bit rate : 10.5 Mb/s
Movie name : The Bachelor and The Bobby-Soxer / Холостяк и девчонка (1947) – RuTracker
Encoded date : UTC 2019-02-02 09:58:00
Writing application : mkvmerge v30.1.0 ('Forever And More') 64-bit
Writing library : libebml v1.3.6 + libmatroska v1.4.9
Cover : Yes
Attachments : cover.jpgVideo
ID : 1
Format : AVC
Format/Info : Advanced Video Codec
Format profile : High@L4
Format settings : CABAC / 4 Ref Frames
Format settings, CABAC : Yes
Format settings, RefFrames : 4 frames
Format settings, GOP : M=4, N=48
Codec ID : V_MPEG4/ISO/AVC
Duration : 1 h 35 min
Bit rate mode : Constant
Bit rate : 10 000 kb/s
Width : 1 920 pixels
Height : 1 080 pixels
Display aspect ratio : 16:9
Frame rate mode : Constant
Frame rate : 23.976 (24000/1001) FPS
Color space : YUV
Chroma subsampling : 4:2:0
Bit depth : 8 bits
Scan type : Progressive
Bits/(Pixel*Frame) : 0.201
Stream size : 6.64 GiB (95%)
Title : The.Bachelor.and.the.Bobby-Soxer.1947.1080p.WEB-DL.AAC2.0.H.264-SbR
Language : English
Default : Yes
Forced : No
Color range : Limited
Color primaries : BT.709
Transfer characteristics : BT.709
Matrix coefficients : BT.709Audio #1
ID : 2
Format : AC-3
Format/Info : Audio Coding 3
Codec ID : A_AC3
Duration : 1 h 35 min
Bit rate mode : Constant
Bit rate : 192 kb/s
Channel(s) : 2 channels
Channel positions : Front: L R
Sampling rate : 48.0 kHz
Frame rate : 31.250 FPS (1536 SPF)
Bit depth : 16 bits
Compression mode : Lossy
Stream size : 131 MiB (2%)
Title : AVO – Сергей Кузнецов
Language : Russian
Service kind : Complete Main
Default : Yes
Forced : NoAudio #2
ID : 3
Format : AC-3
Format/Info : Audio Coding 3
Codec ID : A_AC3
Duration : 1 h 35 min
Bit rate mode : Constant
Bit rate : 192 kb/s
Channel(s) : 1 channel
Channel positions : Front: C
Sampling rate : 48.0 kHz
Frame rate : 31.250 FPS (1536 SPF)
Bit depth : 16 bits
Compression mode : Lossy
Stream size : 131 MiB (2%)
Title : Original (DVD)
Language : English
Service kind : Complete Main
Default : No
Forced : NoAudio #3
ID : 4
Format : AAC
Format/Info : Advanced Audio Codec
Format profile : LC
Codec ID : A_AAC-2
Duration : 1 h 35 min
Bit rate : 125 kb/s
Channel(s) : 2 channels
Channel positions : Front: L R
Sampling rate : 48.0 kHz
Frame rate : 46.875 FPS (1024 SPF)
Compression mode : Lossy
Stream size : 85.5 MiB (1%)
Title : Original (WEB-DL)
Language : English
Default : No
Forced : NoText
ID : 5
Format : UTF-8
Codec ID : S_TEXT/UTF8
Codec ID/Info : UTF-8 Plain Text
Duration : 1 h 32 min
Bit rate : 87 b/s
Count of elements : 1612
Stream size : 59.2 KiB (0%)
Language : English
Default : No
Forced : NoMenu
00:00:00.000 : en:01. Credits
00:01:15.589 : en:02. Sklunklish in the A.M.
00:05:43.691 : en:03. Exit Woman, Enter Judge
00:07:43.144 : en:04. Center of the Disturbance
00:11:09.350 : en:05. As She Sees It
00:14:20.375 : en:06. Knight in Shining Armor
00:17:41.410 : en:07. The Interview
00:21:45.988 : en:08. Posing for Dickie
00:24:53.843 : en:09. His Visitor
00:27:58.862 : en:10. Richard Explains
00:33:22.852 : en:11. Uncle Matt's Plan
00:36:57.234 : en:12. Susan's New Beau
00:40:45.829 : en:13. Hello, Jerry
00:45:30.948 : en:14. Goodbye, Jerry
00:48:10.574 : en:15. Book Covers
00:53:22.220 : en:16. Mellow Greetings
00:56:46.257 : en:17. Picnic Rivals
01:00:48.834 : en:18. Obstacle Race
01:04:23.715 : en:19. Optical Illusion
01:08:10.942 : en:20. Untrue Confession
01:12:09.548 : en:21. A Night Out
01:15:58.910 : en:22. Gang's All Here
01:20:09.694 : en:23. Unhappy Birthday
01:23:06.505 : en:24. Slamming Doors
01:26:23.869 : en:25. Facts vs. Emotions
01:29:30.390 : en:26. Time to Travel
01:33:27.994 : en:27. Power of Hoodoo
01:34:26.687 : en:28. Cast List

To download the content you need:
1. Download and install torrent client [for Windows] or for mobile system
2. Click on [Download]
Attention.
If the test YOU are NOT a ROBOT - does not work, then You are using an outdated browser.
Install the current browser and click on [Download]
Security: torrent client is allowed by Kaspersky.

[asmlocator.ru].t605527.torrent 
Torrent: Registered [ 2019-02-02 14:30 ] · 6B9F94E17A21921F51AC865BB31CF0A4AEEF533B

Download .torrent

Download

35 KB

Status: checked
Completed: 0 times
Size: 6.98 GB
terms.php
[Profile] [PM]
Display posts:    
Reply to topic

Current time is: 26-Apr 08:32

All times are UTC ± 0



You cannot post new topics in this forum
You cannot reply to topics in this forum
You cannot edit your posts in this forum
You cannot delete your posts in this forum
You cannot vote in polls in this forum
You cannot attach files in this forum
You can download files in this forum