Хуго и Бобо / Hugo a Bobo (Милош Мацурек, Адольф Борн, Ярослав Дубрава / Miloš Macourek, Adolf Born, Jaroslav Doubrava) [1975, Чехословакия, мультфильм для взрослых, TVRip]

Reply to topic
DL-List and Torrent activity
Size:  114 MB   |    Registered:  2 months 21 day   |    Completed:  0 times

Seeder not seen: Never

 
   
 
 
Author Message

star21 ®

Gender: Female

Longevity: 3 years 5 months

Posts: 552372

Location: Екатеринбург

Post 02-Feb-2019 14:31

[Quote]

Хуго и Бобо / Hugo a BoboСтрана: Чехословакия
Жанр: мультфильм для взрослых
Продолжительность: 00:11:10
Год выпуска: 1975
Перевод: не требуется
Русские субтитры: нетРежиссёры: Милош Мацурек, Адольф Борн, Ярослав Дубрава / Miloš Macourek, Adolf Born, Jaroslav DoubravaОписание: Необычная история про бродягу Хуго и его пса Бобо.Качество: TVRip
Формат: AVI
Видео: 1292 kbps, 608х448 (4:3), 25.000 fps, MPEG-4 Visual (XviD)
Аудио: 128 kbps, 44.1 kHz, 2 channels, MPEG Audio (MP3)
Субтитры: отсутствуют

Подробные технические данные

GeneralComplete name                            : Hugo a Bobo (1975).aviFormat                                   : AVIFormat/Info                              : Audio Video InterleaveFile size                                : 114 MiBDuration                                 : 11mn 10sOverall bit rate                         : 1 432 KbpsWriting application                      : Lavf55.19.104VideoID                                       : 0Format                                   : MPEG-4 VisualFormat profile                           : Advanced Simple@L5Format settings, BVOP                    : 2Format settings, QPel                    : NoFormat settings, GMC                     : No warppointsFormat settings, Matrix                  : Default (H.263)Codec ID                                 : XVIDCodec ID/Hint                            : XviDDuration                                 : 11mn 10sBit rate                                 : 1 292 KbpsWidth                                    : 608 pixelsHeight                                   : 448 pixelsDisplay aspect ratio                     : 4:3Original display aspect ratio            : 4:3Frame rate                               : 25.000 fpsColor space                              : YUVChroma subsampling                       : 4:2:0Bit depth                                : 8 bitsScan type                                : ProgressiveCompression mode                         : LossyBits/(Pixel*Frame)                       : 0.190Stream size                              : 103 MiB (90%)Writing library                          : XviD 73AudioID                                       : 1Format                                   : MPEG AudioFormat version                           : Version 1Format profile                           : Layer 3Mode                                     : Joint stereoMode extension                           : MS StereoCodec ID                                 : 55Codec ID/Hint                            : MP3Duration                                 : 11mn 10sBit rate mode                            : ConstantBit rate                                 : 128 KbpsChannel(s)                               : 2 channelsSampling rate                            : 44.1 KHzCompression mode                         : LossyStream size                              : 10.2 MiB (9%)Alignment                                : Aligned on interleavesInterleave, duration                     : 26 ms (0.65 video frame)Writing library                          : LAME3.99.5

Скриншоты


To download the content you need:
1. Download and install torrent client [for Windows] or for mobile system
2. Click on [Download]
Attention.
If the test YOU are NOT a ROBOT - does not work, then You are using an outdated browser.
Install the current browser and click on [Download]
Security: torrent client is allowed by Kaspersky.

[asmlocator.ru].t605523.torrent 
Torrent: Registered [ 2019-02-02 14:30 ] · B269DBCC38BFAEA58F558479A022E61DE58AB8AB

Download .torrent

Download

18 KB

Status: checked
Completed: 0 times
Size: 114 MB
terms.php
[Profile] [PM]
Display posts:    
Reply to topic

Current time is: 24-Apr 12:50

All times are UTC ± 0



You cannot post new topics in this forum
You cannot reply to topics in this forum
You cannot edit your posts in this forum
You cannot delete your posts in this forum
You cannot vote in polls in this forum
You cannot attach files in this forum
You can download files in this forum