Хуго и Бобо / Hugo a Bobo (Милош Мацурек, Адольф Борн, Ярослав Дубрава / Miloš Macourek, Adolf Born, Jaroslav Doubrava) [1975, Чехословакия, мультфильм для взрослых, TVRip]

Ответить на тему
Статистика раздачи
Размер:  114 MB   |    Зарегистрирован:  18 дней   |    Скачан:  0 раз

Полного источника не было: Никогда

 
   
 
 
Автор Сообщение

star21 ®

Пол: Женский

Стаж: 3 года 3 месяца

Сообщений: 552536

Откуда: Екатеринбург

Создавать темы 02-Фев-2019 14:31

[Цитировать]

Хуго и Бобо / Hugo a BoboСтрана: Чехословакия
Жанр: мультфильм для взрослых
Продолжительность: 00:11:10
Год выпуска: 1975
Перевод: не требуется
Русские субтитры: нетРежиссёры: Милош Мацурек, Адольф Борн, Ярослав Дубрава / Miloš Macourek, Adolf Born, Jaroslav DoubravaОписание: Необычная история про бродягу Хуго и его пса Бобо.Качество: TVRip
Формат: AVI
Видео: 1292 kbps, 608х448 (4:3), 25.000 fps, MPEG-4 Visual (XviD)
Аудио: 128 kbps, 44.1 kHz, 2 channels, MPEG Audio (MP3)
Субтитры: отсутствуют

Подробные технические данные

GeneralComplete name                            : Hugo a Bobo (1975).aviFormat                                   : AVIFormat/Info                              : Audio Video InterleaveFile size                                : 114 MiBDuration                                 : 11mn 10sOverall bit rate                         : 1 432 KbpsWriting application                      : Lavf55.19.104VideoID                                       : 0Format                                   : MPEG-4 VisualFormat profile                           : Advanced Simple@L5Format settings, BVOP                    : 2Format settings, QPel                    : NoFormat settings, GMC                     : No warppointsFormat settings, Matrix                  : Default (H.263)Codec ID                                 : XVIDCodec ID/Hint                            : XviDDuration                                 : 11mn 10sBit rate                                 : 1 292 KbpsWidth                                    : 608 pixelsHeight                                   : 448 pixelsDisplay aspect ratio                     : 4:3Original display aspect ratio            : 4:3Frame rate                               : 25.000 fpsColor space                              : YUVChroma subsampling                       : 4:2:0Bit depth                                : 8 bitsScan type                                : ProgressiveCompression mode                         : LossyBits/(Pixel*Frame)                       : 0.190Stream size                              : 103 MiB (90%)Writing library                          : XviD 73AudioID                                       : 1Format                                   : MPEG AudioFormat version                           : Version 1Format profile                           : Layer 3Mode                                     : Joint stereoMode extension                           : MS StereoCodec ID                                 : 55Codec ID/Hint                            : MP3Duration                                 : 11mn 10sBit rate mode                            : ConstantBit rate                                 : 128 KbpsChannel(s)                               : 2 channelsSampling rate                            : 44.1 KHzCompression mode                         : LossyStream size                              : 10.2 MiB (9%)Alignment                                : Aligned on interleavesInterleave, duration                     : 26 ms (0.65 video frame)Writing library                          : LAME3.99.5

Скриншоты


Чтобы скачать этот контент, Вам необходимо:
1. Скачать и установить торрент-клиент [клик для Windows], (для мобильного найдите на Play Маркет).
2. Кликнуть по [Скачать]


Внимание.
Если проверка ВЫ НЕ РОБОТ - не работает, значит Вы используете устаревший браузер.
Установите актуальный браузер и повторно кликните по [Скачать]
Безопасность: торрент-клиент разрешён АВ Касперского.

[asmlocator.ru].t605523.torrent 
Торрент: Зарегистрирован [ 2019-02-02 14:30 ] · B269DBCC38BFAEA58F558479A022E61DE58AB8AB

Скачать .torrent

Скачать

18 KB

Статус: проверено
Скачан: 0 раз
Размер: 114 MB
terms.php
[Профиль] [ЛС]
Показать сообщения:    
Ответить на тему

Текущее время: 20-Фев 20:39

Часовой пояс: UTC ± 0



Вы не можете начинать темы
Вы не можете отвечать на сообщения
Вы не можете редактировать свои сообщения
Вы не можете удалять свои сообщения
Вы не можете голосовать в опросах
Вы не можете прикреплять файлы к сообщениям
Вы можете скачивать файлы